Первісне зло / Primeval (2007) 1080p Ukr/Eng | sub Eng

Нові коментарі

Нова тема   Відповісти
Останній раз роздавалося staf777 (2019-05-19)
Автор Повідомлення
staf777 
Відео Гуртом - підтримка та поширення
Відео Гуртом - підтримка та поширення


З нами з: 16.11.16
Востаннє: 19.05.19
Повідомлень: 2356

2017-01-18 01:37  
Первісне зло / Primeval (2007) 1080p Ukr/Eng | sub Eng

Первісне зло / Primeval (2007) 1080p Ukr/Eng | sub Eng
Оригінальний постер

Первісне зло / Primeval (2007) 1080p Ukr/Eng | sub Eng
Жанр: жахи, трилер
Країна: США



Кінокомпанія: Hollywood Pictures, Pariah, Sarah James Productions
Актори: Домінік Перселл, Брук Ленгтон, Орландо Джонс, Юрген Прохнов, Гідеон Емері, Габріель Малема, Лінда Мпондо, Кевін Отто
Режисер: Майкл Кетлман
Сюжет:
У нетрях африканських джунглів залякані тубільці розповідають про восьмиметрового крокодила-людожера, який привчився до смаку людського м'яса, поїдаючи трупи жертв місцевої громадянської війни. Команда телевізійників із США вирушає на пошуки рептилії, не припускаючи, що окрім кровожерної тварюки їм доведеться зіткнутися і з людоїдами в людській подобі.


Тривалість: 01:34:12
Якість: 1080p
Відео:
кодек:
розмір кадру: 1920x818
бітрейт: 14000 кб/с

Аудіо # 1:
мова: українська
переклад: професійний дубльований
кодек: 5.1
бітрейт: 384 кб/с

Аудіо # 2:
мова: англійська
переклад: оригінал
кодек: 5.1
бітрейт: 1509 кб/с

Субтитри:
мова: англійська
тип: програмні (м'які)
формат: *.srt
Info
General
Unique ID : 230723420138527640384624811901148044015 (0xAD93B6E10F04DADCAEE89B37405D9AEF)
Complete name : E:\HDCLUB\Primeval (2007) [Ukr,Eng sub.Eng] 1080p [Hurtom].
Format :
Format version : Version 4 / Version 2
File size : 10.5 GiB
Duration : 1h 34mn
Overall bit rate : 15.9 Mbps
Movie name : Primeval (2007) [Ukr,Eng sub.Eng] 1080p [Hurtom]
Encoded date : UTC 2017-01-19 13:08:54
Writing application : v8.5.1 ('Where you lead I will follow') 64bit
Writing library : libebml v1.3.3 + v1.4.4
Attachements : cover
DURATION : 01:28:24.089000000
NUMBER_OF_FRAMES : 851
NUMBER_OF_BYTES : 26939
_STATISTICS_WRITING_APP : v8.5.1 ('Where you lead I will follow') 64bit
_STATISTICS_WRITING_DATE_UTC : 2017-01-19 13:08:54
_STATISTICS_TAGS : BPS DURATION NUMBER_OF_FRAMES NUMBER_OF_BYTES

Video
ID : 1
Format : AVC
Format/Info : Advanced Video Codec
Format profile : [email protected]
Format settings, CABAC : Yes
Format settings, ReFrames : 5 frames
Codec ID : V_MPEG4/ISO/AVC
Duration : 1h 34mn
Bit rate : 14.0 Mbps
Width : 1 920 pixels
Height : 818 pixels
Display aspect ratio : 2.35:1
Frame rate mode : Constant
Frame rate : 23.976 fps
Color space : YUV
Chroma subsampling : 4:2:0
Bit depth : 8 bits
Scan type : Progressive
Bits/(Pixel*Frame) : 0.372
Stream size : 9.00 GiB (86%)
Title : Primeval (2007) 1080p [Hurtom]
Writing library : core 146 r2538kMod 121396c
Encoding settings : cabac=1 / ref=5 / deblock=1:-3:-3 / analyse=0x3:0x113 / me=umh / subme=10 / psy=1 / fade_compensate=0.00 / psy_rd=1.00:0.00 / mixed_ref=1 / me_range=64 / chroma_me=1 / trellis=2 / 8x8dct=1 / cqm=0 / deadzone=21,11 / fast_pskip=0 / chroma_qp_offset=-2 / threads=12 / lookahead_threads=2 / sliced_threads=0 / nr=0 / decimate=0 / interlaced=0 / bluray_compat=0 / constrained_intra=0 / fgo=0 / bframes=8 / b_pyramid=2 / b_adapt=2 / b_bias=0 / direct=3 / weightb=1 / open_gop=0 / weightp=2 / keyint=240 / keyint_min=23 / scenecut=40 / intra_refresh=0 / rc_lookahead=80 / rc=2pass / mbtree=0 / bitrate=14000 / ratetol=1.0 / qcomp=0.60 / qpmin=0 / qpmax=69 / qpstep=4 / cplxblur=20.0 / qblur=0.5 / vbv_maxrate=50000 / vbv_bufsize=62500 / nal_hrd=none / filler=0 / ip_ratio=1.40 / pb_ratio=1.30 / aq=1:1.00
Language : English
Default : Yes
Forced : No
DURATION : 01:34:12.314000000
NUMBER_OF_FRAMES : 135520
NUMBER_OF_BYTES : 9885349725
_STATISTICS_WRITING_APP : v8.5.1 ('Where you lead I will follow') 64bit
_STATISTICS_WRITING_DATE_UTC : 2017-01-19 13:08:54
_STATISTICS_TAGS : BPS DURATION NUMBER_OF_FRAMES NUMBER_OF_BYTES

Audio #1
ID : 2
Format : AC-3
Format/Info : Audio Coding 3
Mode extension : CM (complete main)
Format settings, Endianness : Big
Codec ID : A_AC3
Duration : 1h 34mn
Bit rate mode : Constant
Bit rate : 384 Kbps
Channel(s) : 6 channels
Channel positions : Front: L C R, Side: L R, LFE
Sampling rate : 48.0 KHz
Bit depth : 16 bits
Compression mode : Lossy
Stream size : 259 MiB (2%)
Title : [UA-DUB]
Language : Ukrainian
Default : Yes
Forced : Yes

Audio #2
ID : 3
Format :
Format/Info : Digital Theater Systems
Mode : 16
Format settings, Endianness : Big
Codec ID : A_DTS
Duration : 1h 34mn
Bit rate mode : Constant
Bit rate : 1 510 Kbps
Channel(s) : 6 channels
Channel positions : Front: L C R, Side: L R, LFE
Sampling rate : 48.0 KHz
Bit depth : 24 bits
Compression mode : Lossy
Stream size : 1 017 MiB (10%)
Title : [Original]
Language : English
Default : No
Forced : No

Text
ID : 4
Format : UTF-8
Codec ID : S_TEXT/UTF8
Codec ID/Info : UTF-8 Plain Text
Title : [SRT/UTF8] Full
Language : English
Default : No
Forced : No

Menu
00:00:00.000 : :CHAPTER №01
00:04:35.399 : :CHAPTER №02
00:08:28.382 : :CHAPTER №03
00:13:21.717 : :CHAPTER №04
00:16:25.776 : :CHAPTER №05
00:24:58.455 : :CHAPTER №06
00:30:27.200 : :CHAPTER №07
00:36:08.623 : :CHAPTER №08
00:42:03.978 : :CHAPTER №09
00:48:00.419 : :CHAPTER №10
00:51:25.498 : :CHAPTER №11
00:57:55.972 : :CHAPTER №12
01:09:21.282 : :CHAPTER №13
01:17:03.869 : :CHAPTER №14
01:22:09.966 : :CHAPTER №15
01:27:00.840 : :CHAPTER №16
Скріншоти



Джерело: &
Особиста оцінка: 0 - не дивився
Первісне зло / Primeval (2007) 1080p Ukr/Eng | sub Eng


 Трекер:    Зареєстрований   

Завантажити / скачати фільм українською



відео для новачків



 Зареєстрований:   2017-01-19 18:38
 Розмір:   10.45 GB 
 Оцінка фільму:   10/10 (Голосів: 4)
   
Інші релізи
   Первісне зло / Primeval (2007) AVC Ukr/Eng | sub Eng staf777  0 / 0   2.72 GB   2018-04-03 22:05 
   Первісне зло / Primeval (2007) Ukr/Eng | sub Eng JACKUS  0 / 1   1.71 GB   2011-02-06 16:59 
fixxa 
Свій


З нами з: 18.02.16
Востаннє: 06.05.19
Повідомлень: 134

2017-01-18 22:35  
ого але не дмаю що крутіший за озеро страху)
Ваш часовий пояс: GMT + 2 Години

Нова тема   Відповісти