Священик / Priest (2011) 1080p Ukr/Eng | Sub Eng

Нові коментарі

Нова тема   Відповісти
Автор Повідомлення
staf777 
Попереджень: 1
Попереджень: 1 


З нами з: 16.11.16
Востаннє: 13.12.18
Повідомлень: 1909

2017-01-17 22:44  
Священик / Priest (2011) 1080p Ukr/Eng | Sub Eng

Альтернативний постер
Оригінальний постер

Священик / Priest (2011) 1080p Ukr/Eng | Sub Eng
«І один у полі воїн»


Жанр: екшн, жахи, фантастика, трилер.
Країна: США



Кіностудія / кінокомпанія: Buckaroo Entertainment, Michael De Luca Productions, Screen Gems, Stars Road Entertainment, TOKYOPOP; мейджор – Buena Vista Sony Pictures Releasing (BVSPR).
Режисер: Скотт Чарльз Стюарт
Актори: Пол Беттані, Карл Урбан, Кем Гігандет, Меггі К’ю, Лілі Коллінс, Бред Дуріф, Стівен Мойер, Крістофер Пламмер, Алан Дейл, Медкен Емік та ін.
Фото акторів
Сюжет:
Пост-апокаліптичний науково-фантастичний трилер. Дія відбувається в альтернативному світі, де століттями триває війна між людьми та вампірами. Сюжет обертається навколо легендарного Воїна Священика, який живе тихим та мирним життям серед звичайних людей. Але коли вампіри викрадають його племінницю, він знову виходить на шлях війни, забувши про свої обітниці та порушуючи усі встановлені правила...


Тривалість: 01:27:27

Якість: 1080p
Відео:
кодек:
розмір кадру: 1920x800
бітрейт: 12.9 Mб/с

Аудіо # 1:
мова: українська
переклад: професійний дубльований
кодек: 5.1
бітрейт: 640 кб/с

Аудіо # 2:
мова: англійська
переклад: оригінал
кодек: 5.1
бітрейт: 1510 кб/с

Аудіо # 3:
мова: англійська
переклад: коментарі
кодек: 2.0
бітрейт: 192 кб/с

Аудіо # 4:
мова: англійська
переклад: коментарі
кодек: 2.0
бітрейт: 192 кб/с

Субтитри:
мова: англійська
тип: програмні (м'які)
формат: *.srt

Info
General
Unique ID : 229779419646134852928812836177910953695 (0xACDDE80FBB39077D9BDDFD32A9F7F6DF)
Complete name : H:\» HD українською » Фільми в HD\Жахи\Priest (2011) [Ukr,Eng sub.Eng] 1080p [Hurtom].
Format :
Format version : Version 4 / Version 2
File size : 9.42 GiB
Duration : 1h 27mn
Overall bit rate : 15.4 Mbps
Movie name : Priest (2011) [Ukr,Eng sub.Eng] 1080p [Hurtom]
Encoded date : UTC 2017-01-18 16:25:01
Writing application : v9.6.0 ('Slave To Your Mind') 64bit
Writing library : libebml v1.3.4 + v1.4.5
DURATION : 01:19:20.594000000
NUMBER_OF_FRAMES : 529
NUMBER_OF_BYTES : 20820
_STATISTICS_WRITING_APP : v9.6.0 ('Slave To Your Mind') 64bit
_STATISTICS_WRITING_DATE_UTC : 2017-01-18 16:25:01
_STATISTICS_TAGS : BPS DURATION NUMBER_OF_FRAMES NUMBER_OF_BYTES

Video
ID : 1
Format : AVC
Format/Info : Advanced Video Codec
Format profile : [email protected]
Format settings, CABAC : Yes
Format settings, ReFrames : 5 frames
Codec ID : V_MPEG4/ISO/AVC
Duration : 1h 27mn
Bit rate : 12.9 Mbps
Width : 1 920 pixels
Height : 800 pixels
Display aspect ratio : 2.40:1
Frame rate mode : Constant
Frame rate : 23.976 fps
Color space : YUV
Chroma subsampling : 4:2:0
Bit depth : 8 bits
Scan type : Progressive
Bits/(Pixel*Frame) : 0.350
Stream size : 7.69 GiB (82%)
Title : Priest (2011)
Writing library : core 116 r2037 f8ebd4a
Encoding settings : cabac=1 / ref=5 / deblock=1:-2:-2 / analyse=0x3:0x133 / me=umh / subme=11 / psy=1 / psy_rd=1.00:0.09 / mixed_ref=1 / me_range=32 / chroma_me=1 / trellis=2 / 8x8dct=1 / cqm=0 / deadzone=21,11 / fast_pskip=1 / chroma_qp_offset=-3 / threads=12 / sliced_threads=0 / nr=0 / decimate=1 / interlaced=0 / bluray_compat=0 / constrained_intra=0 / bframes=8 / b_pyramid=2 / b_adapt=2 / b_bias=0 / direct=3 / weightb=1 / open_gop=1 / weightp=2 / keyint=250 / keyint_min=23 / scenecut=40 / intra_refresh=0 / rc_lookahead=80 / rc=2pass / mbtree=1 / bitrate=12886 / ratetol=1.0 / qcomp=0.60 / qpmin=0 / qpmax=69 / qpstep=4 / cplxblur=20.0 / qblur=0.5 / ip_ratio=1.40 / aq=2:0.70
Language : English
Default : Yes
Forced : No
DURATION : 01:27:27.201000000
NUMBER_OF_FRAMES : 125807
NUMBER_OF_BYTES : 8451789464
_STATISTICS_WRITING_APP : v9.6.0 ('Slave To Your Mind') 64bit
_STATISTICS_WRITING_DATE_UTC : 2017-01-18 16:25:01
_STATISTICS_TAGS : BPS DURATION NUMBER_OF_FRAMES NUMBER_OF_BYTES

Audio #1
ID : 2
Format : AC-3
Format/Info : Audio Coding 3
Mode extension : CM (complete main)
Format settings, Endianness : Big
Codec ID : A_AC3
Duration : 1h 27mn
Bit rate mode : Constant
Bit rate : 640 Kbps
Channel(s) : 6 channels
Channel positions : Front: L C R, Side: L R, LFE
Sampling rate : 48.0 KHz
Bit depth : 16 bits
Compression mode : Lossy
Stream size : 400 MiB (4%)
Title : [UA-DUB]
Language : Ukrainian
Default : Yes
Forced : Yes

Audio #2
ID : 3
Format :
Format/Info : Digital Theater Systems
Mode : 16
Format settings, Endianness : Big
Codec ID : A_DTS
Duration : 1h 27mn
Bit rate mode : Constant
Bit rate : 1 509 Kbps
Channel(s) : 6 channels
Channel positions : Front: L C R, Side: L R, LFE
Sampling rate : 48.0 KHz
Bit depth : 24 bits
Compression mode : Lossy
Stream size : 944 MiB (10%)
Title : [Original]
Language : English
Default : No
Forced : No

Audio #3
ID : 4
Format : AC-3
Format/Info : Audio Coding 3
Format profile : Dolby Digital
Mode extension : CM (complete main)
Format settings, Endianness : Big
Codec ID : A_AC3
Duration : 1h 27mn
Bit rate mode : Constant
Bit rate : 192 Kbps
Channel(s) : 2 channels
Channel positions : Front: L R
Sampling rate : 48.0 KHz
Bit depth : 16 bits
Compression mode : Lossy
Stream size : 120 MiB (1%)
Title : 2.0 @ 192 kbps - Commentary
Language : English
Default : No
Forced : No

Audio #4
ID : 5
Format : AC-3
Format/Info : Audio Coding 3
Format profile : Dolby Digital
Mode extension : CM (complete main)
Format settings, Endianness : Big
Codec ID : A_AC3
Duration : 1h 27mn
Bit rate mode : Constant
Bit rate : 192 Kbps
Channel(s) : 2 channels
Channel positions : Front: L R
Sampling rate : 48.0 KHz
Bit depth : 16 bits
Compression mode : Lossy
Stream size : 120 MiB (1%)
Title : 2.0 @ 192 kbps - Descriptive
Language : English
Default : No
Forced : No

Text
ID : 6
Format : UTF-8
Codec ID : S_TEXT/UTF8
Codec ID/Info : UTF-8 Plain Text
Language : English
Default : No
Forced : No

Menu
00:00:00.000 : en:00:00:00.000
00:01:46.523 : en:00:01:46.523
00:04:24.264 : en:00:04:24.264
00:07:26.863 : en:00:07:26.863
00:10:25.166 : en:00:10:25.166
00:14:39.295 : en:00:14:39.295
00:19:21.369 : en:00:19:21.369
00:23:01.380 : en:00:23:01.380
00:24:47.486 : en:00:24:47.486
00:26:54.613 : en:00:26:54.613
00:30:03.218 : en:00:30:03.218
00:31:27.886 : en:00:31:27.886
00:32:56.975 : en:00:32:56.975
00:35:12.110 : en:00:35:12.110
00:38:23.718 : en:00:38:23.718
00:40:53.868 : en:00:40:53.868
00:44:55.693 : en:00:44:55.693
00:49:30.593 : en:00:49:30.593
00:52:10.544 : en:00:52:10.544
00:54:58.295 : en:00:54:58.295
00:59:39.993 : en:00:59:39.993
01:03:44.237 : en:01:03:44.237
01:07:13.029 : en:01:07:13.029
01:08:53.129 : en:01:08:53.129
01:12:17.333 : en:01:12:17.333
01:14:22.875 : en:01:14:22.875
01:17:24.640 : en:01:17:24.640

Скріншоти






Джерело: &
Особиста оцінка: 0 - не дивився
Священик / Priest (2011) 1080p Ukr/Eng | Sub Eng


 Трекер:    Зареєстрований   

Завантажити / скачати фільм українською



відео для новачків



 Зареєстрований:   2017-01-19 11:13
 Розмір:   9.42 GB 
 Оцінка фільму:   9.3/10 (Голосів: 9)
   
Інші релізи
   Священик / Priest (2011) Remux 1080p Ukr/Eng | Sub Eng staf777  1 / 0   16.86 GB   2018-02-22 11:33 
   Священик / Priest (2011) patriot2305  6 / 0   1.46 GB   2014-02-07 13:58 
   Священик / Priest (2011) 1080p Ukr/Eng (3D) [Half OverUnder] famous37  2 / 0   5.66 GB   2013-12-07 18:56 
   Священик / Priest (2011) 720p Zeus62  1 / 0   4.29 GB   2011-09-03 13:06 
   Священик / Priest (2011) 720p-mini Drool  2 / 0   1.53 GB   2011-07-24 01:39 
   Священик / Priest (2011) DVD5 akon111  1 / 0   3.75 GB   2011-06-04 12:52 
deemonmeister 
Новенький


З нами з: 24.02.15
Востаннє: 12.12.18
Повідомлень: 19

2018-09-12 10:56  
Непогане кіно по коміксам. На разок глянуть. Як на мене значно краще усіляких спайдерменів, та не гірше останніх медмаксів. Хоча до "Хронік вампірів" дещо не дотягуює. Дякую!
Ваш часовий пояс: GMT + 2 Години

Нова тема   Відповісти