Гармати острова Наварон / The Guns of Navarone (1961) 720p Ukr/Eng | Sub Eng

Нові коментарі

Нова тема   Відповісти
Автор Повідомлення
Anonymous 







2017-01-17 19:49  
Гармати острова Наварон / The Guns of Navarone (1961) 720p Ukr/Eng | Sub Eng




Оскар за Найкращі спецефекти та два Золотих глобуси - за Найкращий фільм (драма) та Найкращий саундтрек


Жанр: екшн, пригодницький, драма, воєнний
Країна: Велика Британія, США



Кінокомпанія: Columbia Pictures Corporation, Highroad Productions
Режисер: Джей Лі Томпсон / J. Lee Thompson
Актори: Ґреґорі Пек / Gregory Peck, Девід Нівен / David Niven, Ентоні Квін / Anthony Quinn, Стенлі Бейкер / Stanley Baker, Ентоні Квейл / Anthony Quayle, Джеймс Дерен / James Darren, Ірен Папас / Irene Papas, Ґія Скала / Gia Scala, Джеймс Робертсон Джастіс / James Robertson Justice, Річард Гарріс / Richard Harris

Сюжет:
Греція. Егейське море. 1943 рік. Німеччина збирається здійснити бліцкриг на острів Керос. Дві тисячі британських солдатів опинилися в пастці на цьому крихітному острівці. Їм, виснаженим і безпорадним, залишалося жити всього тиждень. Евакуація британських солдатів була неможлива, бо підходи до острова блокували дві німецькі гармати з радарним наведенням, розташовані на сусідньому острові Наварон. Гармати настільки точні і далекобійні, що будь-яка спроба союзників провести рятувальну операцію була приречена.


Тривалість: 02:36:21
Якість: 720p [CRiSC]
Відео:
кодек:
розмір кадру: 1280 х 544
бітрейт: 7000 кб/с

Аудіо # 1:
мова: українська
переклад: двоголосий закадровий
кодек: 2.0
бітрейт: 192 кб/с

Аудіо # 2:
мова: англійська
переклад: оригінал
кодек: 5.1
бітрейт: 640 кб/с

Аудіо # 3-4:
мова: англійська
переклад: коментарі
кодек: 2.0
бітрейт: 64 кб/с

Субтитри:
мова: англійська
тип: програмні (м'які)
формат: *.srt
Info
Код:
Format                      :
Format version              : Version 4 / Version 2
File size                   : 8.69 GiB
Duration                    : 2 h 36 min
Overall bit rate            : 7 957 kb/s

Video
ID                          : 1
Format                      : AVC
Format/Info                 : Advanced Video Codec
Format profile              : [email protected]
Format settings, CABAC      : Yes
Format settings, ReFrames   : 11 frames
Codec ID                    : V_MPEG4/ISO/AVC
Duration                    : 2 h 36 min
Bit rate                    : 7 000 kb/s
Width                       : 1 280 pixels
Height                      : 544 pixels
Display aspect ratio        : 2.35:1
Frame rate mode             : Constant
Frame rate                  : 23.976 (24000/1001) FPS
Color space                 : YUV
Chroma subsampling          : 4:2:0
Bit depth                   : 8 bits
Scan type                   : Progressive
Bits/(Pixel*Frame)          : 0.419
Stream size                 : 7.65 GiB (88%)
Title                       : Гармати острова Наварон / The Guns of Navarone (1961) 720p [CRiSC]
Writing library             : core 118 r2085 8a62835
Encoding settings           : cabac=1 / ref=11 / deblock=1:-3:-3 / analyse=0x3:0x133 / me=umh / subme=11 / psy=1 / psy_rd=0.90:0.10 / mixed_ref=1 / me_range=96 / chroma_me=1 / trellis=2 / 8x8dct=1 / cqm=0 / deadzone=21,11 / fast_pskip=0 / chroma_qp_offset=-3 / threads=12 / sliced_threads=0 / nr=0 / decimate=0 / interlaced=0 / bluray_compat=0 / constrained_intra=0 / bframes=11 / b_pyramid=2 / b_adapt=2 / b_bias=0 / direct=3 / weightb=1 / open_gop=0 / weightp=2 / keyint=250 / keyint_min=23 / scenecut=40 / intra_refresh=0 / rc_lookahead=40 / rc=2pass / mbtree=0 / bitrate=7000 / ratetol=1.0 / qcomp=0.60 / qpmin=0 / qpmax=69 / qpstep=4 / cplxblur=20.0 / qblur=0.5 / vbv_maxrate=50000 / vbv_bufsize=62500 / nal_hrd=none / ip_ratio=1.40 / pb_ratio=1.30 / aq=1:0.80
Language                    : English
Default                     : Yes
Forced                      : No
Color range                 : Limited
Color primaries             : BT.709
Transfer characteristics    : BT.709
Matrix coefficients         : BT.709

Audio #1
ID                          : 2
Format                      : AC-3
Format/Info                 : Audio Coding 3
Mode extension              : CM (complete main)
Format settings, Endianness : Big
Codec ID                    : A_AC3
Duration                    : 2 h 36 min
Bit rate mode               : Constant
Bit rate                    : 192 kb/s
Channel(s)                  : 2 channels
Channel positions           : Front: L R
Sampling rate               : 48.0 kHz
Frame rate                  : 31.250 FPS (1536 spf)
Bit depth                   : 16 bits
Compression mode            : Lossy
Stream size                 : 215 MiB (2%)
Title                       : DVO [1+1] 2.0 192 Kbps [Hurtom-karvai0,Tanat13]
Language                    : Ukrainian
Default                     : Yes
Forced                      : Yes

Audio #2
ID                          : 3
Format                      : AC-3
Format/Info                 : Audio Coding 3
Mode extension              : CM (complete main)
Format settings, Endianness : Big
Codec ID                    : A_AC3
Duration                    : 2 h 36 min
Bit rate mode               : Constant
Bit rate                    : 640 kb/s
Channel(s)                  : 6 channels
Channel positions           : Front: L C R, Side: L R, LFE
Sampling rate               : 48.0 kHz
Frame rate                  : 31.250 FPS (1536 spf)
Bit depth                   : 16 bits
Compression mode            : Lossy
Stream size                 : 716 MiB (8%)
Title                       : Original, 5.1 640 Kbps
Language                    : English
Default                     : No
Forced                      : No

Audio #3
ID                          : 4
Format                      :
Format/Info                 : Advanced Audio Codec
Format profile              : HE- / LC
Codec ID                    : A_AAC
Duration                    : 2 h 36 min
Bit rate                    : 60.8 kb/s
Channel(s)                  : 2 channels
Channel positions           : Front: L R
Sampling rate               : 48.0 kHz / 24.0 kHz
Frame rate                  : 23.438 FPS (1024 spf)
Compression mode            : Lossy
Stream size                 : 68.0 MiB (1%)
Title                       : Commentary #1, 2.0 64 Kbps
Language                    : English
Default                     : No
Forced                      : No

Audio #4
ID                          : 5
Format                      :
Format/Info                 : Advanced Audio Codec
Format profile              : HE- / LC
Codec ID                    : A_AAC
Duration                    : 2 h 36 min
Bit rate                    : 60.7 kb/s
Channel(s)                  : 2 channels
Channel positions           : Front: L R
Sampling rate               : 48.0 kHz / 24.0 kHz
Frame rate                  : 23.438 FPS (1024 spf)
Compression mode            : Lossy
Stream size                 : 67.9 MiB (1%)
Title                       : Commentary #2, 2.0 64 Kbps
Language                    : English
Default                     : No
Forced                      : No

Text
ID                          : 6
Format                      : UTF-8
Codec ID                    : S_TEXT/UTF8
Codec ID/Info               : UTF-8 Plain Text
Duration                    : 2 h 35 min
Bit rate                    : 37 b/s
Count of elements           : 1164
Stream size                 : 43.0 KiB (0%)
Language                    : English
Default                     : No
Forced                      : No

Menu
00:00:00.000                : en:00:00:00.000
00:12:57.610                : en:00:12:57.610
00:17:57.076                : en:00:17:57.076
00:24:11.408                : en:00:24:11.408
00:32:43.920                : en:00:32:43.920
00:46:16.857                : en:00:46:16.857
00:59:17.262                : en:00:59:17.262
01:05:08.863                : en:01:05:08.863
01:13:27.653                : en:01:13:27.653
01:21:01.482                : en:01:21:01.482
01:29:46.464                : en:01:29:46.464
01:38:32.240                : en:01:38:32.240
01:51:56.126                : en:01:51:56.126
02:08:41.213                : en:02:08:41.213
02:17:32.995                : en:02:17:32.995
02:28:01.206                : en:02:28:01.206


Джерело: &
Подяка за український звук п.karvai0 та п.Tanat13


Срібний реліз (на рейтинг впливає 50% завантаженого)
 Трекер:    Зареєстрований   

Завантажити / скачати фільм українською



відео для новачків



 Зареєстрований:   2017-01-17 20:07
 Розмір:   8.69 GB 
 Оцінка фільму:   3.6/10 (Голосів: 14)
   
Інші релізи
Anonymous 







2017-01-17 20:19  
Друга частина - https://toloka.to/t14097 https://toloka.to/t40336
demetrius52 
Свій


З нами з: 02.04.17
Востаннє: 21.10.17
Повідомлень: 62

2017-04-28 14:55  
Anonymous
Переклад: Валентини Бойван
Літературний редактор: Оксана Батюк
Звукорежисер: Віктор Коляда
Режисер: Станіслав Чернілевський
Текст читали актори: Владислав Пупков і Лариса Руснак

Фільм перекладено і озвучено на студії 1+1

makluha maklay 
Відео Гуртом - підтримка та поширення
Відео Гуртом - підтримка та поширення


З нами з: 29.10.10
Востаннє: 21.10.17
Повідомлень: 36

2017-08-04 09:56  
Не розумію, чому така низька оцінка роздачі , фільм справді вартий уваги !
Anonymous 







2017-08-04 10:45  
makluha maklay, гуртомівська оцінка замінусована десятком одиниць з акаунтів одного ботовода у всіх моїх релізах, як і багатьох інших релізерів. Тому користуйся оцінкою імдб.
Ваш часовий пояс: GMT + 2 Години

Нова тема   Відповісти