Konstantin Ionenko Quintet - Deep Immersion (2014) [FLAC] | Contemporary Jazz / Modern

Нові коментарі

Нова тема   Відповісти
Автор Повідомлення
kolpavel 
VIP


З нами з: 04.05.14
Востаннє: 16.08.17
Повідомлень: 1156

2017-01-17 14:45  
Konstantin Ionenko Quintet - Deep Immersion (2014) [FLAC] | Contemporary Jazz / Modern

Konstantin Ionenko Quintet - Deep Immersion (2014) [FLAC] | Contemporary Jazz / Modern


Стиль: Contemporary Jazz, Modern, Post Bop
Країна, місто: Україна, Київ
Сайти: Офіційний сайт
Видавець: FANCYMUSIC (FANCY034)
Виконавці:
Dmitri Shlelein: альт-саксофон
Dennis Adu: труба, флюгельгорні
Павло Литвиненко: фортепіано
Костянтин Іоненко: бас
Павло Галицький: барабани
Пісні:

    1. Yellow Greenwich - 09:36
    2. Barracuda - 09:48
    3. Devoted - 06:57
    4. Deep Dive - 07:23
    5. Sect - 06:35
    6. Invisible - 09:13
    7. Megapolis Distress (CFS) - 07:32

Тривалість: 00:57:18
Мова: iнструментальнi композицii
Аудіо-кодек: FLAC
Бітрейт: 833 кб/с
Джерело: трекер
Додаткова інформація:
(.CUE)
REM DATE 2013
REM DISCID 6B0D6D07
REM COMMENT "ExactAudioCopy v1.3"
PERFORMER "Konstantin Ionenko Quintet"
TITLE "Deep Immersion"
REM COMPOSER ""
FILE "Konstantin Ionenko Quintet - Deep Immersion.flac" WAVE
TRACK 01 AUDIO
TITLE "Yellow Greenwich"
PERFORMER "Konstantin Ionenko Quintet"
REM COMPOSER ""
INDEX 01 00:00:00
TRACK 02 AUDIO
TITLE "Barracuda"
PERFORMER "Konstantin Ionenko Quintet"
REM COMPOSER ""
INDEX 01 09:37:02
TRACK 03 AUDIO
TITLE "Devoted"
PERFORMER "Konstantin Ionenko Quintet"
REM COMPOSER ""
INDEX 01 19:27:59
TRACK 04 AUDIO
TITLE "Deep Dive"
PERFORMER "Konstantin Ionenko Quintet"
REM COMPOSER ""
INDEX 01 26:27:13
TRACK 05 AUDIO
TITLE "Sect"
PERFORMER "Konstantin Ionenko Quintet"
REM COMPOSER ""
INDEX 01 33:52:11
TRACK 06 AUDIO
TITLE "Invisible"
PERFORMER "Konstantin Ionenko Quintet"
REM COMPOSER ""
INDEX 01 40:29:14
TRACK 07 AUDIO
TITLE "Megapolis Distress (CFS)"
PERFORMER "Konstantin Ionenko Quintet"
REM COMPOSER ""
INDEX 01 49:44:18
EAC
Exact Audio Copy V1.3 from 2. September 2016

Отчёт EAC об извлечении, выполненном 16. января 2017, 7:40

Konstantin Ionenko Quintet / Deep Immersion

Дисковод: TSSTcorpCDDVDW TS-L633J Adapter: 1 ID: 0

Режим чтения : Достоверность
Использование точного потока : Да
Отключение кэша аудио : Да
Использование указателей C2 : Нет

Коррекция смещения при чтении : 6
Способность читать области Lead-in и Lead-out : Нет
Заполнение пропущенных сэмплов тишиной : Да
Удаление блоков с тишиной в начале и конце : Нет
При вычислениях CRC использовались нулевые сэмплы : Да
Интерфейс : Встроенный Win32-интерфейс для Win NT/2000

Выходной формат : Пользовательский кодировщик
Выбранный битрейт : 768 kBit/s
Качество : Высокий
Добавление ID3-тега : Нет
Утилита сжатия : C:\Program Files (x86)\Exact Audio Copy\FLAC\FLAC.EXE
Дополнительные параметры : -6 -V -T "ARTIST=%artist%" -T "TITLE=%title%" -T "ALBUM=%albumtitle%" -T "DATE=%year%" -T "TRACKNUMBER=%tracknr%" -T "GENRE=%genre%" -T "COMMENT=%comment%" -T "BAND=%albuminterpret%" -T "ALBUMARTIST=%albuminterpret%" -T "COMPOSER=%composer%" %haslyrics%--tag-from-file=LYRICS="%lyricsfile%"%haslyrics% -T "DISCNUMBER=%cdnumber%" -T "TOTALDISCS=%totalcds%" -T "TOTALTRACKS=%numtracks%" %hascover%--picture="%coverfile%"%hascover% %source% -o %dest%

TOC извлечённого CD

Трек | Старт | Длительность | Начальный сектор | Конечный сектор
---------------------------------------------------------------------
1 | 0:00.00 | 9:37.02 | 0 | 43276
2 | 9:37.02 | 9:50.57 | 43277 | 87583
3 | 19:27.59 | 6:59.29 | 87584 | 119037
4 | 26:27.13 | 7:24.73 | 119038 | 152410
5 | 33:52.11 | 6:37.03 | 152411 | 182188
6 | 40:29.14 | 9:15.04 | 182189 | 223817
7 | 49:44.18 | 7:33.36 | 223818 | 257828

Характеристики диапазона извлечения и сообщения об ошибках

Выбранный диапазон

Имя файла D:\Torrent\2013. Konstantin Ionenko Quintet - Deep Immersion (flac)\Konstantin Ionenko Quintet - Deep Immersion.wav

Пиковый уровень 100.0 %
Скорость извлечения 2.8 X
Качество диапазона 100.0 %
CRC теста 9F430DD0
CRC копии 9F430DD0
Копирование... OK

Ошибок не произошло

AccurateRip: сводка

Трек 1 отсутствует в базе данных
Трек 2 отсутствует в базе данных
Трек 3 отсутствует в базе данных
Трек 4 отсутствует в базе данных
Трек 5 отсутствует в базе данных
Трек 6 отсутствует в базе данных
Трек 7 отсутствует в базе данных

Ни одного трека нет в базе AccurateRip

Конец отчёта

==== Контрольная сумма отчёта 4D472DF31D58500CB5C3E9C9C472034F962D60D52011DA1BB0EFBA8917CA7ED0 ====


Якщо Ви справді бажаєте підтримати українське - після прослуховування, якщо музика вам сподобалась, придбайте ліцензійний диск. Підтримаймо вітчизняних виконавців!


Срібний реліз (на рейтинг впливає 50% завантаженого)
 Трекер:    Зареєстрований   

Завантажити / скачати українську музику



відео для новачків



 Зареєстрований:   2017-01-17 14:45
 Розмір:   351 MB 
 Оцінка музики:   10/10 (Голосів: 5)
   
kolpavel 
VIP


З нами з: 04.05.14
Востаннє: 16.08.17
Повідомлень: 1156

2017-01-17 22:14  

Ваш часовий пояс: GMT + 2 Години

Нова тема   Відповісти