Соломон Кейн / Solomon Kane (2009) Remux 1080p Ukr/Eng | Sub Ukr/Eng

Нові коментарі

Нова тема   Відповісти
Автор Повідомлення
staf777 
Відео Гуртом - підтримка та поширення
Відео Гуртом - підтримка та поширення


З нами з: 16.11.16
Востаннє: 06.11.17
Повідомлень: 522

2017-01-16 22:57  
Соломон Кейн / Solomon Kane (2009) Remux 1080p Ukr/Eng | Sub Ukr/Eng

Соломон Кейн / Solomon Kane (2009) Remux 1080p Ukr/Eng | Sub Ukr/Eng


Жанр: фентезі, екшн, пригодницький
Країна: Франція, Чехія, Велика Британія



Кінокомпанія: Davis-Films, Czech Anglo Productions, Wandering Star Pictures
Режисер: Майкл Бассет
Актори: Джеймс П'юрфой, Джеймс Бебсон, Лаура Бараник, Джофф Белл, Метью Блад-Сміт, Брайан Каспе, Джон Комер, Маккензи Крук, Крістіан Кларк Данклі, Джейсон Флемінг

Сюжет:
За мотивами оповідань Роберта Ірвіна Говарда. Соломон Кейн — англійський солдат XVI століття, який усвідомив, що його страшні і жорстокі вчинки навічно прокляли його душу.

Вирішивши спокутувати свої гріхи, Кейн дає клятву жити у мирі і чесноті, але коли на землю ступають темні сили, йому не залишається нічого, як дати бій.


Тривалість: 01:43:54
Якість: Remux 1080p
Відео:
кодек:
розмір кадру: 1920x1080
бітрейт: 27,1 Mб/с

Аудіо # 1:
мова: українська
переклад: професійний дубльований
кодек: -HD MA 5.1
бітрейт: 2401 кб/с

Аудіо # 2:
мова: англійська
кодек: -HD MA 5.1
бітрейт: 2241 кб/с

Джерело озвучення:

Український дубляж, а також англійська доріжка німецького видання з ліцензії

Субтитри:
мова: українська
тип: пререндерні
формат: PGS

Субтитри:
мова: англійська
тип: пререндерні
формат: PGS
Info
General
Unique ID : 238160440791843319093883353598514449841 (0xB32C084E9300093EBE8CF6AF26384DB1)
Complete name : J:\» HD українською » Фільми в HD\Фентезі\Solomon Kane (2009) [Ukr,Eng sub.Ukr,Eng] Remux 1080p [Hurtom].
Format :
Format version : Version 4 / Version 2
File size : 23.1 GiB
Duration : 1 h 44 min
Overall bit rate mode : Variable
Overall bit rate : 31.7 Mb/s
Movie name : Solomon Kane (2009) [Ukr,Eng sub.Ukr,Eng] Remux 1080p [Hurtom]
Encoded date : UTC 2017-01-17 15:54:11
Writing application : mkvmerge v9.6.0 ('Slave To Your Mind') 64bit
Writing library : libebml v1.3.4 + libmatroska v1.4.5
Cover : Yes
Attachments : cover.jpg

Video
ID : 1
Format : AVC
Format/Info : Advanced Video Codec
Format profile : [email protected]
Format settings, CABAC : Yes
Format settings, ReFrames : 4 frames
Codec ID : V_MPEG4/ISO/AVC
Duration : 1 h 44 min
Bit rate mode : Variable
Bit rate : 27.1 Mb/s
Maximum bit rate : 36.0 Mb/s
Width : 1 920 pixels
Height : 1 080 pixels
Display aspect ratio : 16:9
Frame rate mode : Constant
Frame rate : 24.000 FPS
Standard : NTSC
Color space : YUV
Chroma subsampling : 4:2:0
Bit depth : 8 bits
Scan type : Progressive
Bits/(Pixel*Frame) : 0.544
Stream size : 19.7 GiB (85%)
Title : Solomon Kane (2009) Remux 1080p
Default : Yes
Forced : No
Color range : Limited
Color primaries : BT.709
Transfer characteristics : BT.709
Matrix coefficients : BT.709

Audio #1
ID : 2
Format :
Format/Info : Digital Theater Systems
Format profile : MA / Core
Mode : 16
Format settings, Endianness : Big
Codec ID : A_DTS
Duration : 1 h 44 min
Bit rate mode : Variable / Constant
Bit rate : 2 401 kb/s / 1 509 kb/s
Channel(s) : 6 channels
Channel positions : Front: L C R, Side: L R, LFE
Sampling rate : 48.0 kHz
Frame rate : 93.750 FPS (512 spf)
Bit depth : 16 bits
Compression mode : Lossless / Lossy
Stream size : 1.75 GiB (8%)
Title : [UA-DUB]
Language : Ukrainian
Default : Yes
Forced : Yes

Audio #2
ID : 3
Format :
Format/Info : Digital Theater Systems
Format profile : MA / Core
Mode : 16
Format settings, Endianness : Big
Codec ID : A_DTS
Duration : 1 h 44 min
Bit rate mode : Variable / Constant
Bit rate : 2 241 kb/s / 1 509 kb/s
Channel(s) : 6 channels
Channel positions : Front: L C R, Side: L R, LFE
Sampling rate : 48.0 kHz
Frame rate : 93.750 FPS (512 spf)
Bit depth : 16 bits
Compression mode : Lossless / Lossy
Stream size : 1.63 GiB (7%)
Title : [Original]
Language : English
Default : No
Forced : No

Text #1
ID : 4
Format : PGS
Muxing mode : zlib
Codec ID : S_HDMV/PGS
Codec ID/Info : Picture based subtitle format used on BDs/HD-DVDs
Duration : 1 h 34 min
Bit rate : 3 446 b/s
Count of elements : 1482
Stream size : 2.33 MiB (0%)
Language : Ukrainian
Default : Yes
Forced : No

Text #2
ID : 5
Format : PGS
Muxing mode : zlib
Codec ID : S_HDMV/PGS
Codec ID/Info : Picture based subtitle format used on BDs/HD-DVDs
Duration : 1 h 34 min
Bit rate : 3 684 b/s
Count of elements : 1638
Stream size : 2.49 MiB (0%)
Language : English
Default : No
Forced : No
Скріншоти




Джерело:
Особиста оцінка: 8 - мені сподобалося


Золотий реліз (завантажене не впливає на рейтинг)
 Трекер:    Зареєстрований   

Завантажити / скачати фільм українською



відео для новачків



 Зареєстрований:   2017-01-17 19:08
 Розмір:   23.08 GB 
 Оцінка фільму:   9.2/10 (Голосів: 9)
   
Інші релізи
   Соломон Кейн / Solomon Kane (2009) 2xUkr patriot2305  4 / 0   1.6 GB   2013-08-19 20:56 
   Соломон Кейн / Solomon Kane (2009) 2xUkr/Eng | Sub Ukr/Eng karvai0  7 / 0   2.18 GB   2011-03-07 21:28 
   Соломон Кейн / Solomon Kane (2009) 1080p 2хUkr/Eng Maggot  1 / 1   8.5 GB   2011-02-24 09:21 
   Соломон Кейн / Solomon Kane (2009) 720p 2хUkr/Eng Maggot  10 / 0   4.08 GB   2011-02-24 09:19 
jloohatik 
Частий відвідувач


З нами з: 10.09.11
Востаннє: 16.12.17
Повідомлень: 30

2017-12-09 13:43  
Допоможіть врятувати хороший реліз, встаньте на роздачу щоб я завантажив
archi86 
Свій


З нами з: 06.01.15
Востаннє: 16.12.17
Повідомлень: 121

2017-12-10 09:00  
не реально завантажити
sansaclip-r 
Свій


З нами з: 25.12.08
Востаннє: 12.12.17
Повідомлень: 50

2017-12-12 00:29  
Станьте на роздачу! як скачаю віддам 3 рази!
Фільм дуже зацікавив.

archi86 
Свій


З нами з: 06.01.15
Востаннє: 16.12.17
Повідомлень: 121

2017-12-16 10:14  
помилка, there is not enough space
igor911 
Відео Гуртом
Відео Гуртом


З нами з: 18.01.08
Востаннє: 16.12.17
Повідомлень: 8515

2017-12-16 10:30  
archi86, в тебе недостатньо місця для завантаження цього файлу.
archi86 
Свій


З нами з: 06.01.15
Востаннє: 16.12.17
Повідомлень: 121

2017-12-16 12:04  
igor911
я вже розібрався

Ваш часовий пояс: GMT + 2 Години

Нова тема   Відповісти