Уламки щастя (205 серій) / Paramparça (2014-2016) 720p

Нові коментарі

Нова тема   Відповісти
Автор Повідомлення
Anonymous 







2017-01-16 12:26  
Уламки щастя (205 серій) / Paramparça (2014-2016) 720p



Оригінальні постери




Жанр: мелодрама, драма
Країна: Туреччина



Кінокомпанія: Endemol Shine Turkey
Режисер: Джевдет Мерджан / Cevdet Mercan, Алтан Дьонмез / Altan Dönmez
Актори: Нургюль Ешілчай / Nurgül Yesilçay, Еркан Петеккая / Erkan Petekkaya, Джемал Хюнал / Cemal Hünal, Ебру Озкан / Ebru Özkan, Нюрсель Кьосе / Nursel Köse, Аліна Боз / Alina Boz, Лейла Танлар / Leyla Tanlar, Гюнеш Емір / Günes Emir, Бурак Тозкопаран / Burak Tozkoparan та інші

Сюжет:
Неймовірна історія двох сімей, яка почалася ще п'ятнадцять років тому. Головні героїні серіалу - жінки Гюльсерен та Діляра. Вони ніколи не були знайомі та належать до абсолютно різних соціальних класів. Але у них є дещо спільне. По-перше, обидві жінки вагітні та будуть народжувати в одному пологовому будинку. А по-друге, у них однакове прізвище. Ніхто навіть не здогадувався, що така дрібниця, як одне й те саме прізвище, може назавжди змінити життя обох жінок.
У Діляри та Гюльсерен народилися дві дівчинки. Але сталося дещо дивне. Через те, що обидві жінки носять однакове прізвище, персонал пологового будинку переплутав малюків. Не підозрюючи, Діляра та Гюльсерен обмінялися дітьми. Минуло п'ятнадцять років і життєві шляхи жінок склалося зовсім по-різному. Одразу після пологів від Гюльсерен пішов чоловік, залишивши її саму з маленькою дитиною. Весь цей час жінка змушена була сама виховувати доньку та тяжко працювати на кількох роботах. Її дочка виросла дуже примхливою, вона вважає, що мати недостатньо робить для неї. Дівчина мріє про багате та розкішне життя, у той час, як її мама працює. У Діляри ж ситуація зовсім інша. Проблем з коштами її сім'я не має, адже чоловік жінки, Джихад, успішний бізнесмен. Але у цієї пари є проблема іншого характеру. Між Ділярою та Джихадом вже давно немає ніяких почуттів, їх шлюб тримається лише на дітях, яких у пари народилося двоє. На розлучення жінка не згодна, тому що її дуже хвилює те, що про неї подумають знайомі. На людях вони лише вдають щасливе подружжя. Але одного разу трапляється те, що одночасно змінює долю усіх героїв - таємниця про переплутаних малюків стає розкритою. Невже обидві жінки п'ятнадцять років виховували та любили не своїх дітей? На що готові піти головні герої заради довгоочікуваного щастя?


Тривалість: 1 серія: 37:43 - 59:38 (цілком серій: 205, розбивка та нумерація серій від 1+1, оригінальних серій 87 по 2-2,5 години)
Перелік серій
Серія 1
...
Серія 205
Якість: 720p (202 серії), 576p (2 серії), 480p (1 серія)
Відео:
кодек:
розмір кадру: 1280 х 720 (202 серії), 1024х576 (30-а серія), 854х480 (37-а серія), 768х576 (120-а серія)
бітрейт: 1275-2018 Кбіт/с (202 серії), 1080 Кбіт/с (30-а серія), 690 Кбіт/с (37-а серія), 612 Кбіт/с (120-а серія)

Аудіо:
мова: українська
переклад: професійний дубльований
кодек: 2.0
бітрейт: 128 Кбіт/с
Info
Код:
Complete name               : e205.Paramparça..720p.Hurtom.
Format                      :
Format version              : Version 4 / Version 2
File size                   : 511 MiB
Duration                    : 44 min 39 s
Overall bit rate            : 1 601 kb/s

Video
ID                          : 1
Format                      : AVC
Format/Info                 : Advanced Video Codec
Format profile              : [email protected]
Format settings, CABAC      : Yes
Format settings, ReFrames   : 6 frames
Codec ID                    : V_MPEG4/ISO/AVC
Duration                    : 44 min 39 s
Bit rate                    : 1 470 kb/s
Width                       : 1 280 pixels
Height                      : 720 pixels
Display aspect ratio        : 16:9
Frame rate mode             : Constant
Frame rate                  : 25.000 FPS
Color space                 : YUV
Chroma subsampling          : 4:2:0
Bit depth                   : 8 bits
Scan type                   : Progressive
Bits/(Pixel*Frame)          : 0.064
Stream size                 : 470 MiB (92%)
Writing library             : core 142 r2491 24e4fed
Encoding settings           : cabac=1 / ref=6 / deblock=1:0:0 / analyse=0x3:0x113 / me=hex / subme=7 / psy=1 / psy_rd=1.00:0.00 / mixed_ref=1 / me_range=16 / chroma_me=1 / trellis=1 / 8x8dct=1 / cqm=0 / deadzone=21,11 / fast_pskip=1 / chroma_qp_offset=-2 / threads=12 / lookahead_threads=2 / sliced_threads=0 / nr=0 / decimate=1 / interlaced=0 / bluray_compat=0 / constrained_intra=0 / bframes=3 / b_pyramid=2 / b_adapt=1 / b_bias=0 / direct=1 / weightb=1 / open_gop=0 / weightp=2 / keyint=100 / keyint_min=10 / scenecut=40 / intra_refresh=0 / rc_lookahead=40 / rc=crf / mbtree=1 / crf=22.0 / qcomp=0.60 / qpmin=0 / qpmax=69 / qpstep=4 / vbv_maxrate=6000 / vbv_bufsize=12000 / crf_max=0.0 / nal_hrd=none / filler=0 / ip_ratio=1.41 / aq=1:1.00
Default                     : Yes
Forced                      : No

Audio
ID                          : 2
Format                      :
Format/Info                 : Advanced Audio Codec
Format profile              : LC
Codec ID                    : A_AAC
Duration                    : 44 min 39 s
Bit rate                    : 128 kb/s
Channel(s)                  : 2 channels
Channel positions           : Front: L R
Sampling rate               : 44.1 kHz
Frame rate                  : 43.066 FPS (1024 spf)
Compression mode            : Lossy
Delay relative to video     : -80 ms
Stream size                 : 40.9 MiB (8%)
Title                       : 1+1
Language                    : Ukrainian
Default                     : Yes
Forced                      : No


Джерело:
Подяка п.Neytreenor'у за підготовку релізу

ЗАЛИШАЙТЕСЬ ЯКОМОГА ДОВШЕ НА РОЗДАЧІ

ЗАВАНТАЖИВ САМ - ДАЙ ЗАВАНТАЖИТИ ІНШИМ!


Золотий реліз (завантажене не впливає на рейтинг)
 Трекер:    Зареєстрований   

Завантажити / скачати серіал українською



відео для новачків



 Зареєстрований:   2017-01-16 12:52
 Розмір:   112.32 GB 
 Оцінка серіалу:   5/10 (Голосів: 21)
   
ctukcpeka 
Новенький


З нами з: 10.11.16
Востаннє: 21.10.20
Повідомлень: 1

2017-03-01 21:20  
поддайте жару, пожалуйста
Anonymous 







2017-03-01 21:23  
ctukcpeka, пишіть українською, будь ласка
Цитата:
2. Правила та обмеження форуму
Всім без винятку заборонено:
2.1 Спілкуватися іншою мовою, аніж літературною українською


Я на роздачі постійно, але в нас з вами закриті порти, тож роздача йтиме хіба через інших пірів, в кого вони відкриті.

aleksy17 
Новенький


З нами з: 12.11.12
Востаннє: 21.11.20
Повідомлень: 1

2017-06-30 07:10  
Допоможіть з роздачею будь ласка
Koyl22 
Новенький


З нами з: 03.01.17
Востаннє: 18.11.20
Повідомлень: 1

2017-07-11 00:48  
А можна в AVI викласти або розмір кадру 1024 на 424. Камп не тягне такий розмір. Дякуємо.
Anonymous 







2017-07-11 07:38  
Koyl22 написано:
А можна в AVI викласти або розмір кадру 1024 на 424. Камп не тягне такий розмір. Дякуємо.

ні, я не перекодовуватиму.
Koyl22 написано:
Рейтинг: 0
це означає, що ви зовсім не поважаєте наш трекер, роботу релізерів та інших учасників файлообміну.
daskams 
Новенький


З нами з: 06.08.17
Востаннє: 03.03.20
Повідомлень: 1

2017-09-10 18:03  
дайте скорости!!!!
Anonymous 







2017-09-10 18:04  
daskams,
Цитата:
2. Правила та обмеження форуму
Всім без винятку заборонено:
2.1 Спілкуватися іншою мовою, аніж літературною українською

Аркадій Дзиґа 
VIP


З нами з: 09.10.14
Востаннє: 28.11.20
Повідомлень: 481

2018-01-03 01:59  
Спочатку не подобалося - потім низка емоційно-сезонних подій у Моєму житті та сюжетні ходи змінили Мою думку про "Уламки щастя" в кращий бік. Ніколи не думав, що стягуватиму цей серіял - частинками, але все одно зацікавлюся і стягуватиму. Як інколи на такому простому прикладі переконуєшся, що життя робить круті повороти - з часом (мить, короткий, середній чи довгий проміжок) Ми зміюємося, наші погляди змінюються, наші дії, думки та вчинки змінюються. Правду казали Знайомі - не можна бути категоричним!
Anonymous 







2020-02-05 08:49  
Відновлено роздачу на прохання п.lost123
Ваш часовий пояс: GMT + 2 Години

Нова тема   Відповісти