Ніко - шлях до зірок (Niko & The Way to the Stars) / Niko - Lentajan poika (2008) 1080p Ukr/Eng

Нові коментарі

Нова тема   Відповісти
Автор Повідомлення
Anonymous 







2017-01-15 22:55  
Ніко - шлях до зірок / Niko & The Way to the Stars / Niko - Lentajan poika (2008) 1080p Ukr/Eng

Ніко - шлях до зірок (Niko & The Way to the Stars) / Niko - Lentajan poika (2008) 1080p Ukr/Eng


Жанр: анімація, сімейний, пригодницький
Країна: Німеччина, Данія, Фінляндія, Ірландія



Кінокомпанія: Cinemaker Oy, Anima Vitae, A. Film
Режисер: Майкл Хегнер, Карі Юуусонен
Актори: Оллі Янтунен, Ханну-Пекка Бьоркман, Вуокко Ховатта, Ваги Вьерікко, Юссі Лампі, Рісто Каскілахті, Мінтту Мустакаліо, Юха Вейонен, Пунті Валтонен, Еліна Кніхтіля, Томмі Корпела, Аааре Карен, Артту Хямяляйнен, Емма Робертс, Барбара Шенебергер, Норм Макдональд

Сюжет:
Молодому північному оленеві на ім'я Ніко сниться, що його батько - один з літаючих оленів Санта Клауса. Незважаючи на страждання від серйозного запаморочення, він тікає з свого будинку, щоб узяти льотні уроки у його друга, незграбної білки-летяги Юлії. Незабаром після цього, Ніко і Юлія дізнаються, що Санта і його північний олень знаходяться в серйозній небезпеці. Вони збирають своїх лісових друзів і відправляються в похід на Північний полюс, щоб врятувати Санта Клауса і його батька.


Тривалість: 01:20:44
Якість:
Відео:
кодек:
розмір кадру: 1920х1040
бітрейт: 6 534 кб/с

Аудіо # 1:
мова: українська
переклад: багатоголосий закадровий
кодек: 2.0
бітрейт: 192 кб/с

Аудіо # 2:
мова: англійська
переклад: професійний дубльований
кодек: 5.1
бітрейт: 448 кб/с

Джерело озвучення:
Info
General
Unique ID : 190387978349765212905910278384723503152 (0x8F3B640F1B6B5C1FA8668A5E3A2D2830)
Complete name : D:\Niko. Flight to Stars. 2008. 1080р. Ukr,Eng.
Format :
Format version : Version 4 / Version 2
File size : 4.05 GiB
Duration : 1h 20mn
Overall bit rate : 7 174 Kbps
Encoded date : UTC 2017-01-15 19:22:29
Writing application : mkvmerge v9.3.1 ('Mask Machine') 64bit
Writing library : libebml v1.3.4 + libmatroska v1.4.5
DURATION : 01:20:44.832000000
NUMBER_OF_FRAMES : 151401
NUMBER_OF_BYTES : 116275968
_STATISTICS_WRITING_APP : mkvmerge v9.3.1 ('Mask Machine') 64bit
_STATISTICS_WRITING_DATE_UTC : 2017-01-15 19:22:29
_STATISTICS_TAGS : BPS DURATION NUMBER_OF_FRAMES NUMBER_OF_BYTES

Video
ID : 1
Format : AVC
Format/Info : Advanced Video Codec
Format profile : [email protected]
Format settings, CABAC : Yes
Format settings, ReFrames : 4 frames
Codec ID : V_MPEG4/ISO/AVC
Duration : 1h 20mn
Bit rate : 6 534 Kbps
Width : 1 920 pixels
Height : 1 040 pixels
Display aspect ratio : 1.85:1
Frame rate mode : Constant
Frame rate : 23.976 fps
Color space : YUV
Chroma subsampling : 4:2:0
Bit depth : 8 bits
Scan type : Progressive
Bits/(Pixel*Frame) : 0.136
Stream size : 3.60 GiB (89%)
Writing library : core 66 r1115M 11863ac
Encoding settings : cabac=1 / ref=4 / deblock=1:-3:-3 / analyse=0x3:0x133 / me=umh / subme=7 / psy_rd=1.0:0.0 / mixed_ref=1 / me_range=24 / chroma_me=1 / trellis=2 / 8x8dct=1 / cqm=0 / deadzone=21,11 / chroma_qp_offset=-2 / threads=2 / nr=0 / decimate=0 / mbaff=0 / bframes=5 / b_pyramid=1 / b_adapt=2 / b_bias=0 / direct=1 / wpredb=1 / keyint=250 / keyint_min=25 / scenecut=40(pre) / rc=2pass / bitrate=6534 / ratetol=1.0 / qcomp=0.60 / qpmin=10 / qpmax=51 / qpstep=4 / cplxblur=20.0 / qblur=0.5 / ip_ratio=1.40 / pb_ratio=1.30 / aq=1:1.00
Language : English
Default : Yes
Forced : No
DURATION : 01:20:44.848000000
NUMBER_OF_FRAMES : 116160
NUMBER_OF_BYTES : 3956011730
_STATISTICS_WRITING_APP : mkvmerge v9.3.1 ('Mask Machine') 64bit
_STATISTICS_WRITING_DATE_UTC : 2017-01-15 19:22:29
_STATISTICS_TAGS : BPS DURATION NUMBER_OF_FRAMES NUMBER_OF_BYTES

Audio #1
ID : 2
Format : AC-3
Format/Info : Audio Coding 3
Mode extension : CM (complete main)
Format settings, Endianness : Big
Codec ID : A_AC3
Duration : 1h 20mn
Bit rate mode : Constant
Bit rate : 192 Kbps
Channel(s) : 2 channels
Channel positions : Front: L R
Sampling rate : 48.0 KHz
Compression mode : Lossy
Stream size : 111 MiB (3%)
Language : Ukrainian
Default : Yes
Forced : No

Audio #2
ID : 3
Format : AC-3
Format/Info : Audio Coding 3
Mode extension : CM (complete main)
Format settings, Endianness : Big
Codec ID : A_AC3
Duration : 1h 20mn
Bit rate mode : Constant
Bit rate : 448 Kbps
Channel(s) : 6 channels
Channel positions : Front: L C R, Side: L R, LFE
Sampling rate : 48.0 KHz
Compression mode : Lossy
Stream size : 259 MiB (6%)
Language : English
Default : No
Forced : No
Скріншоти







Джерело: &
Особиста оцінка: 0 - не дивився
Подяка xslim за запис. Arsenfpu за зведення і Shkval за постер.


 Трекер:    Зареєстрований   

Завантажити / скачати мультфільм українською



відео для новачків



 Зареєстрований:   2017-01-15 22:55
 Розмір:   4.05 GB 
 Оцінка мультфільму:   3.6/10 (Голосів: 16)
   
Інші релізи
igor911 
Відео Гуртом
Відео Гуртом


З нами з: 18.01.08
Востаннє: 21.08.17
Повідомлень: 7311

2017-01-16 20:08  
Anonymous, чому не додав українські та оригінальні субтитри https://toloka.to/t21383 ? Також, забув подякувати Arsenfpu за український звук до обох частин.
Anonymous 







2017-01-16 20:50  
igor911
Я брав звук з релізу https://toloka.to/t78893, там запис xslim

igor911 
Відео Гуртом
Відео Гуртом


З нами з: 18.01.08
Востаннє: 21.08.17
Повідомлень: 7311

2017-01-16 22:26  
Anonymous написано:
там запис xslim'а

правильно, сирий запис з ТБ, а під бдріп хто звів та виклав реліз?

Anonymous 







2017-01-23 14:19  
Можна було б і метал поставити.
igor911 
Відео Гуртом
Відео Гуртом


З нами з: 18.01.08
Востаннє: 21.08.17
Повідомлень: 7311

2017-01-23 15:33  
Anonymous, за що?
Цитата:
Принципи надання металу
Золото - українське, непрофесійна озвучка та Remux
Срібло - все до 2005
Бронза - ...логії та релізи з декількома сезонами (випусками у випадку документальних) від 2005 до сьогодні


Додано через 37 хвилин 40 секунд:

з мінусів релізу:
- відсутні доступні в інших релізах українські та оригінальні субтитри;
- старий слабенький ріп ( core 66, subme=7, Bits/(Pixel*Frame) : 0.136);
- релізи обох частин не оформлені в дилогію, навіть немає посилання пошук чи на іншу частину.

Ваш часовий пояс: GMT + 2 Години

Нова тема   Відповісти