Ніко 2 / Niko 2 - Little Brother, Big Trouble / Niko 2: Lentäjäveljekse (2012) 720p Ukr/Eng

Нові коментарі

Нова тема   Відповісти
Автор Повідомлення
Anonymous 







2017-01-15 22:17  
Ніко 2 / Niko 2 - Little Brother, Big Trouble / Niko 2: Lentäjäveljekse (2012) 720p Ukr/Eng

Ніко 2 / Niko 2 - Little Brother, Big Trouble / Niko 2: Lentäjäveljekse (2012) 720p Ukr/Eng


Жанр: анімація, сімейний, пригодницький
Країна: Німеччина, Данія, Фінляндія, Ірландія



Кінокомпанія: Anima Vitae, Cinemaker Oy, Ulysses Filmproduktion
Режисер: Юрген Лердам, Карі Юуусонен
Актори: Ерік Карлсон, Карі Хіеталахті, Карі кетони, Юха Вейонен, Еліна Кніхтіля, Яакко Саарілуома, Юкка Расіла, Ріку Ніємінен, Пертті Койвула, Аааре Карен

Сюжет:
Нові пригоди веселого і відважного оленяти Ніко, що мріє, як і його легендарний батько, стати літаючим оленем в упряжці Санта-Клауса. Все починається напередодні Різдва. Разом зі своїми друзями, білкою Джуліусом, ласкою Вілма і зведеним братиком Джонні Ніко з нетерпінням чекає Санту. Але той знову потрапляє в неймовірну історію. Невже діти залишаться без подарунків?


Тривалість: 01:16:06
Якість:
Відео:
кодек:
розмір кадру: 1280х692
бітрейт: 3 502 кб/с

Аудіо # 1:
мова: українська
переклад: багатоголосий закадровий
кодек: 2.0
бітрейт: 192 кб/с

Аудіо # 2:
мова: англійська
переклад: професійний дубльований
кодек: 5.1
бітрейт: 1 509 кб/с

Джерело озвучення:
Info
General
Unique ID : 224488448766610267291247277167815192662 (0xA8E2E70E7DB3A6A2B73B84546E3C7056)
Complete name : D:\Niko 2.Little Brother Big Trouble. 2012. 720р. Ukr,Eng.
Format :
Format version : Version 4 / Version 2
File size : 2.82 GiB
Duration : 1h 16mn
Overall bit rate : 5 309 Kbps
Movie name : Niko 2 - Little Brother, Big Trouble (2012) - Release for HDCLUB
Encoded date : UTC 2017-01-15 18:02:05
Writing application : mkvmerge v9.3.1 ('Mask Machine') 64bit
Writing library : libebml v1.3.4 + libmatroska v1.4.5
DURATION : 01:16:05.568000000
NUMBER_OF_FRAMES : 142674
NUMBER_OF_BYTES : 109573632
_STATISTICS_WRITING_APP : mkvmerge v9.3.1 ('Mask Machine') 64bit
_STATISTICS_WRITING_DATE_UTC : 2017-01-15 18:02:05
_STATISTICS_TAGS : BPS DURATION NUMBER_OF_FRAMES NUMBER_OF_BYTES

Video
ID : 1
Format : AVC
Format/Info : Advanced Video Codec
Format profile : [email protected]
Format settings, CABAC : Yes
Format settings, ReFrames : 9 frames
Codec ID : V_MPEG4/ISO/AVC
Duration : 1h 16mn
Bit rate : 3 502 Kbps
Width : 1 280 pixels
Height : 692 pixels
Display aspect ratio : 1.85:1
Frame rate mode : Constant
Frame rate : 23.976 fps
Color space : YUV
Chroma subsampling : 4:2:0
Bit depth : 8 bits
Scan type : Progressive
Bits/(Pixel*Frame) : 0.165
Stream size : 1.86 GiB (66%)
Title : Release for HDCLUB
Writing library : core 129 r2245 bc13772
Encoding settings : cabac=1 / ref=9 / deblock=1:-1:-1 / analyse=0x3:0x133 / me=tesa / subme=11 / psy=1 / psy_rd=1.00:0.00 / mixed_ref=1 / me_range=32 / chroma_me=1 / trellis=2 / 8x8dct=1 / cqm=0 / deadzone=21,11 / fast_pskip=0 / chroma_qp_offset=-2 / threads=12 / lookahead_threads=2 / sliced_threads=0 / nr=0 / decimate=1 / interlaced=0 / bluray_compat=0 / constrained_intra=0 / bframes=8 / b_pyramid=2 / b_adapt=2 / b_bias=0 / direct=3 / weightb=1 / open_gop=0 / weightp=2 / keyint=240 / keyint_min=24 / scenecut=40 / intra_refresh=0 / rc=crf / mbtree=0 / crf=16.2 / qcomp=0.60 / qpmin=0 / qpmax=69 / qpstep=4 / ip_ratio=1.40 / pb_ratio=1.30 / aq=1:0.80
Language : Finnish
Default : Yes
Forced : No
Color range : Limited
Color primaries : BT.709
Transfer characteristics : BT.709
Matrix coefficients : BT.709
DURATION : 01:16:05.561000000
NUMBER_OF_FRAMES : 109464
NUMBER_OF_BYTES : 2057430334
_STATISTICS_WRITING_APP : mkvmerge v9.3.1 ('Mask Machine') 64bit
_STATISTICS_WRITING_DATE_UTC : 2017-01-15 18:02:05
_STATISTICS_TAGS : BPS DURATION NUMBER_OF_FRAMES NUMBER_OF_BYTES

Audio #1
ID : 2
Format : AC-3
Format/Info : Audio Coding 3
Mode extension : CM (complete main)
Format settings, Endianness : Big
Codec ID : A_AC3
Duration : 1h 16mn
Bit rate mode : Constant
Bit rate : 192 Kbps
Channel(s) : 2 channels
Channel positions : Front: L R
Sampling rate : 48.0 KHz
Compression mode : Lossy
Stream size : 104 MiB (4%)
Language : Ukrainian
Default : Yes
Forced : No

Audio #2
ID : 3
Format :
Format/Info : Digital Theater Systems
Mode : 16
Format settings, Endianness : Big
Codec ID : A_DTS
Duration : 1h 16mn
Bit rate mode : Constant
Bit rate : 1 509 Kbps
Channel(s) : 6 channels
Channel positions : Front: L C R, Side: L R, LFE
Sampling rate : 48.0 KHz
Bit depth : 16 bits
Compression mode : Lossy
Stream size : 821 MiB (28%)
Title : ( 5.1 @ 1510 kbps - Дубляж)
Language : English
Default : No
Forced : No

Menu
00:00:00.000 : :Chapter 01
00:05:57.315 : :Chapter 02
00:16:19.269 : :Chapter 03
00:23:55.142 : :Chapter 04
00:31:49.866 : :Chapter 05
00:40:38.310 : :Chapter 06
00:47:13.747 : :Chapter 07
00:54:04.366 : :Chapter 08
00:58:33.134 : :Chapter 09
01:05:04.150 : :Chapter 10
01:08:02.161 : :Chapter 11
01:10:53.374 : :Chapter 12
01:16:04.685 : :Chapter 13
Скріншоти











Джерело: &
Особиста оцінка: 0 - не дивився
Збережено оригінальні розділи, як на Blu-Ray
Подяка xslim за запис і Arsenfpu за зведення.


 Трекер:    Зареєстрований   

Завантажити / скачати мультфільм українською



відео для новачків



 Зареєстрований:   2017-01-15 22:35
 Розмір:   2.82 GB 
 Оцінка мультфільму:   2.5/10 (Голосів: 12)
   
Інші релізи
Anonymous 







2017-01-23 14:20  
Можна було б і метал поставити.
Electroz 
Відео Гуртом - підтримка та поширення
Відео Гуртом - підтримка та поширення


З нами з: 18.09.14
Востаннє: 20.08.17
Повідомлень: 1492

2017-01-23 14:48  
Anonymous написано:
Можна було б і метал поставити.

Принципи надання металу написано:

Золото - українське, непрофесійна озвучка та Remux
Срібло - все до 2005
Бронза - ...логії та релізи з декількома сезонами (випусками у випадку документальних) від 2005 до сьогодні

Також можуть дати метал для заохочення на тиждень, якщо оновлено до кращої якості.

Ваш часовий пояс: GMT + 2 Години

Нова тема   Відповісти