Криза в шістьох сценах (Сезон 1) / Crisis in Six Scenes (Season 1) (2016) 720p Ukr/Eng

Нові коментарі

Нова тема   Відповісти
Автор Повідомлення
Чарівний Ліхтар 
Поважний учасник


З нами з: 09.10.16
Востаннє: 28.11.20
Повідомлень: 202

2017-01-15 11:05  
Криза в шістьох сценах (Сезон 1) / Crisis in Six Scenes (Season 1) (2016) 720p Ukr/Eng




Жанр: Комедія
Країна: США



Кінокомпанія: Amazon Studios

Режисер: Вуді Аллен
Актори: Вуді Аллен, Майлі Сайрус, Елен Мей, Джон Маґаро, Рейчел Броснаген та інші.

Сюжет:
Події серіалу відбуваються в 60-ті роки 20-го століття у неспокійний період для США. Сім'ю середнього класу відвідує несподіваний гість і перевертає їхнє життя догори дриґом.

Тривалість: 1 серія ~ 25 хв (цілком серій: 6 з 6)
Перелік серій

01. Епізод 1
02. Епізод 2
03. Епізод 3
04. Епізод 4
05. Епізод 5
06. Епізод 6
Якість: 720p
Відео:
кодек:
розмір кадру: 1280 х 720
бітрейт: 4096 кб/с

Аудіо # 1:
мова: українська
озвучення: професійне багатоголосе закадрове (BaibaKoTV)
кодек: 5.1
бітрейт: 640 кб/с

Перекладено спільнотою "Чарівний Ліхтар"


Аудіо # 2:
мова: англійська
озвучення: оригінал
кодек: 5.1
бітрейт: 640 кб/с
Info

General
Unique ID : 253956379642409321046908321814043256964 (0xBF0E3838807563B5A60E219D9F616884)
Complete name : D:\Криза в шістьох сценах (720p)\Crisis.in.Six.Scenes.S01E01.HD720p..Ukr.Eng.Charivny_Likhtar.
Format :
Format version : Version 4 / Version 2
File size : 892 MiB
Duration : 23mn 18s
Overall bit rate : 5 350 Kbps
Encoded date : UTC 2017-01-14 21:20:28
Writing application : v9.6.0 ('Slave To Your Mind') 64bit
Writing library : libebml v1.3.4 + v1.4.5
DURATION : 00:23:18.912000000
NUMBER_OF_FRAMES : 43716
NUMBER_OF_BYTES : 111912960
_STATISTICS_WRITING_APP : v9.6.0 ('Slave To Your Mind') 64bit
_STATISTICS_WRITING_DATE_UTC : 2017-01-14 21:20:28
_STATISTICS_TAGS : BPS DURATION NUMBER_OF_FRAMES NUMBER_OF_BYTES

Video
ID : 1
Format : AVC
Format/Info : Advanced Video Codec
Format profile : [email protected]
Format settings, CABAC : Yes
Format settings, ReFrames : 4 frames
Codec ID : V_MPEG4/ISO/AVC
Duration : 23mn 18s
Bit rate : 4 096 Kbps
Width : 1 280 pixels
Height : 720 pixels
Display aspect ratio : 16:9
Frame rate mode : Constant
Frame rate : 23.976 fps
Color space : YUV
Chroma subsampling : 4:2:0
Bit depth : 8 bits
Scan type : Progressive
Bits/(Pixel*Frame) : 0.185
Stream size : 661 MiB (74%)
Writing library : core 142 r2479 dd79a61
Encoding settings : cabac=1 / ref=2 / deblock=1:0:0 / analyse=0x3:0x113 / me=hex / subme=7 / psy=1 / psy_rd=1.00:0.00 / mixed_ref=1 / me_range=16 / chroma_me=1 / trellis=1 / 8x8dct=1 / cqm=0 / deadzone=21,11 / fast_pskip=1 / chroma_qp_offset=-2 / threads=6 / lookahead_threads=1 / sliced_threads=0 / nr=0 / decimate=1 / interlaced=0 / bluray_compat=0 / constrained_intra=0 / bframes=3 / b_pyramid=2 / b_adapt=1 / b_bias=0 / direct=1 / weightb=1 / open_gop=0 / weightp=2 / keyint=240 / keyint_min=24 / scenecut=40 / intra_refresh=0 / rc_lookahead=40 / rc=2pass / mbtree=1 / bitrate=4096 / ratetol=1.0 / qcomp=0.60 / qpmin=0 / qpmax=69 / qpstep=4 / cplxblur=20.0 / qblur=0.5 / vbv_maxrate=17500 / vbv_bufsize=17500 / nal_hrd=none / filler=0 / ip_ratio=1.40 / aq=1:1.00
Language : English
Default : Yes
Forced : Yes
Color primaries : BT.709
Transfer characteristics : BT.709
Matrix coefficients : BT.709
Color range : Limited

Audio #1
ID : 2
Format : AC-3
Format/Info : Audio Coding 3
Mode extension : CM (complete main)
Format settings, Endianness : Big
Codec ID : A_AC3
Duration : 23mn 18s
Bit rate mode : Constant
Bit rate : 640 Kbps
Channel(s) : 6 channels
Channel positions : Front: L C R, Side: L R, LFE
Sampling rate : 48.0 KHz
Bit depth : 16 bits
Compression mode : Lossy
Stream size : 107 MiB (12%)
Language : Ukrainian
Default : Yes
Forced : Yes

Audio #2
ID : 3
Format : E-AC-3
Format/Info : Audio Coding 3
Format settings, Endianness : Big
Codec ID : A_EAC3
Duration : 23mn 18s
Bit rate mode : Constant
Bit rate : 640 Kbps
Channel(s) : 6 channels
Channel positions : Front: L C R, Side: L R, LFE
Sampling rate : 48.0 KHz
Compression mode : Lossy
Stream size : 107 MiB (12%)
Language : English
Default : No
Forced : No
Скріншоти



Подяка за постер - duce-pnf


Усі роздачі серіалу


Авторський реліз (завантажувати можна без реєстрації)
 Трекер:    Зареєстрований   

Завантажити / скачати серіал українською



відео для новачків



 Зареєстрований:   2017-03-27 08:35
 Розмір:   5.34 GB 
 Оцінка серіалу:   8.8/10 (Голосів: 18)
   
Alinea 
Відео Гуртом - субтитрування
Відео Гуртом - субтитрування


З нами з: 18.07.09
Востаннє: 22.11.20
Повідомлень: 134

2017-01-15 12:00  
чомусь не вказано рік створення фільму
Чарівний Ліхтар 
Поважний учасник


З нами з: 09.10.16
Востаннє: 28.11.20
Повідомлень: 202

2017-01-15 12:08  
Alinea, у назві ж вказано. Двічі.
Фрэнк 
Новенький


З нами з: 01.04.15
Востаннє: 29.11.20
Повідомлень: 17

2017-01-15 14:50  
А з назвою що? Може все ж таки "Криза в шести сценах"?
Patriot_ukr 
VIP


З нами з: 06.04.15
Востаннє: 20.11.20
Повідомлень: 2258

2017-01-15 15:24  
Фрэнк
Не бачу у цій нічого поганого.

Чарівний Ліхтар 
Поважний учасник


З нами з: 09.10.16
Востаннє: 28.11.20
Повідомлень: 202

2017-03-27 08:46  
Увага! Торрент-файл оновлено. Додано 3-6 серії з фіналом сезону.
zaika 
VIP


З нами з: 01.07.12
Востаннє: 29.11.20
Повідомлень: 1242

2017-06-16 14:14  
Надзвичайно в'їдливий (так можуть творити тільки жиди) , але разом з тим веселий серіал від Вуді Аллена. Тут тобі насмішка над комуністами, маоістами, Чорними пантерами, радикалами, гіппі, над ситою і розніженою Америкою, над самим собою і над жидами взагалі. Браво, Вуді. 9/10.
Ваш часовий пояс: GMT + 2 Години

Нова тема   Відповісти