Криза в шістьох сценах (Сезон 1) / Crisis in Six Scenes (Season 1) (2016) 1080p Ukr/Eng

Нові коментарі

Нова тема   Відповісти
Автор Повідомлення
Чарівний Ліхтар 
Поважний учасник


З нами з: 09.10.16
Востаннє: 28.11.20
Повідомлень: 202

2017-01-15 10:49  
Криза в шістьох сценах (Сезон 1) / Crisis in Six Scenes (Season 1) (2016) 1080p Ukr/Eng




Жанр: Комедія
Країна: США



Кінокомпанія: Amazon Studios

Режисер: Вуді Аллен
Актори: Вуді Аллен, Майлі Сайрус, Елен Мей, Джон Маґаро, Рейчел Броснаген та інші.

Сюжет:
Події серіалу відбуваються в 60-ті роки 20-го століття у неспокійний період для США. Сім'ю середнього класу відвідує несподіваний гість і перевертає їхнє життя догори дриґом.

Тривалість: 1 серія ~ 25 хв (цілком серій: 6 з 6)
Перелік серій

01. Епізод 1
02. Епізод 2
03. Епізод 3
04. Епізод 4
05. Епізод 5
06. Епізод 6
Якість: 1080p
Відео:
кодек:
розмір кадру: 1920 х 1080
бітрейт: 8588 кб/с

Аудіо # 1:
мова: українська
озвучення: професійне багатоголосе закадрове (BaibaKoTV)
кодек: 5.1
бітрейт: 640 кб/с

Перекладено спільнотою "Чарівний Ліхтар"


Аудіо # 2:
мова: англійська
озвучення: оригінал
кодек: 5.1
бітрейт: 640 кб/с
Info

General
Unique ID : 230327508908474129624158575843269886721 (0xAD4776F2CC2491B9A9F3DD80D46F4301)
Complete name : D:\Криза в шістьох сценах\Crisis.in.Six.Scenes.S01E01.HD1080p..Ukr.Eng.Charivny_Likhtar.
Format :
Format version : Version 4 / Version 2
File size : 1.64 GiB
Duration : 23mn 18s
Overall bit rate : 10.1 Mbps
Encoded date : UTC 2017-01-14 18:39:55
Writing application : v9.6.0 ('Slave To Your Mind') 64bit
Writing library : libebml v1.3.4 + v1.4.5
DURATION : 00:23:18.912000000
NUMBER_OF_FRAMES : 43716
NUMBER_OF_BYTES : 111912960
_STATISTICS_WRITING_APP : v9.6.0 ('Slave To Your Mind') 64bit
_STATISTICS_WRITING_DATE_UTC : 2017-01-14 18:39:55
_STATISTICS_TAGS : BPS DURATION NUMBER_OF_FRAMES NUMBER_OF_BYTES

Video
ID : 1
Format : AVC
Format/Info : Advanced Video Codec
Format profile : [email protected]
Format settings, CABAC : Yes
Format settings, ReFrames : 4 frames
Codec ID : V_MPEG4/ISO/AVC
Duration : 23mn 18s
Bit rate : 8 588 Kbps
Width : 1 920 pixels
Height : 1 080 pixels
Display aspect ratio : 16:9
Frame rate mode : Constant
Frame rate : 23.976 fps
Color space : YUV
Chroma subsampling : 4:2:0
Bit depth : 8 bits
Scan type : Progressive
Bits/(Pixel*Frame) : 0.173
Stream size : 1.40 GiB (85%)
Writing library : core 148 r2721+7 72d53ab / tmod 162ad1b X86_64
Encoding settings : cabac=1 / ref=4 / deblock=1:-3:-3 / analyse=0x3:0x133 / me=umh / subme=11 / psy=1 / fade_compensate=0.00 / psy_rd=1.05:0.15 / mixed_ref=1 / me_range=48 / chroma_me=1 / trellis=2 / 8x8dct=1 / cqm=0 / deadzone=6,6 / fast_pskip=0 / chroma_qp_offset=-3 / threads=12 / lookahead_threads=3 / sliced_threads=0 / nr=0 / decimate=0 / interlaced=0 / bluray_compat=0 / constrained_intra=0 / fgo=0 / bframes=10 / b_pyramid=2 / b_adapt=2 / b_bias=0 / direct=3 / weightb=1 / open_gop=0 / weightp=2 / keyint=250 / keyint_min=23 / scenecut=40 / intra_refresh=0 / rc=crf / mbtree=0 / crf=17.0000 / qcomp=0.75 / qpmin=0:0:0 / qpmax=69:69:69 / qpstep=4 / ip_ratio=1.10 / pb_ratio=1.10 / aq=3:0.70 / aq-sensitivity=10.00 / aq-factor=1.00:1.00:1.00 / aq2=0 / aq3=0
Language : English
Default : Yes
Forced : Yes
DURATION : 00:23:18.940000000
NUMBER_OF_FRAMES : 33541
NUMBER_OF_BYTES : 1536356967
_STATISTICS_WRITING_APP : v9.6.0 ('Slave To Your Mind') 64bit
_STATISTICS_WRITING_DATE_UTC : 2017-01-14 18:39:55
_STATISTICS_TAGS : BPS DURATION NUMBER_OF_FRAMES NUMBER_OF_BYTES

Audio #1
ID : 2
Format : AC-3
Format/Info : Audio Coding 3
Mode extension : CM (complete main)
Format settings, Endianness : Big
Codec ID : A_AC3
Duration : 23mn 18s
Bit rate mode : Constant
Bit rate : 640 Kbps
Channel(s) : 6 channels
Channel positions : Front: L C R, Side: L R, LFE
Sampling rate : 48.0 KHz
Bit depth : 16 bits
Compression mode : Lossy
Stream size : 107 MiB (6%)
Language : Ukrainian
Default : Yes
Forced : Yes

Audio #2
ID : 3
Format : E-AC-3
Format/Info : Audio Coding 3
Format settings, Endianness : Big
Codec ID : A_EAC3
Duration : 23mn 18s
Bit rate mode : Constant
Bit rate : 640 Kbps
Channel(s) : 6 channels
Channel positions : Front: L C R, Side: L R, LFE
Sampling rate : 48.0 KHz
Compression mode : Lossy
Stream size : 107 MiB (6%)
Language : English
Default : No
Forced : No
Скріншоти



Подяка за постер - duce-pnf


Усі роздачі серіалу


Авторський реліз (завантажувати можна без реєстрації)
 Трекер:    Зареєстрований   

Завантажити / скачати серіал українською



відео для новачків



 Зареєстрований:   2017-03-27 09:50
 Розмір:   10.44 GB 
 Оцінка серіалу:   8.8/10 (Голосів: 14)
   
11FrYkT 
Модератор відео


З нами з: 20.02.11
Востаннє: 05.12.20
Повідомлень: 7056

2017-01-15 12:57  
Чарівний Ліхтар ,
Цитата:
Відео:
розмір кадру: 1920 х 1080
бітрейт: 8588 кб/с

вкажіть кодек відео
Цитата:
кодек:

кількість каналів в аудіодоріжках

також рекомендую Вам надалі додавати субтитри і в сам контейнер

Чарівний Ліхтар 
Поважний учасник


З нами з: 09.10.16
Востаннє: 28.11.20
Повідомлень: 202

2017-01-15 13:23  
11FrYkT,
аудіокодек ніби ж вказав (АС3)?

Кількість каналів щойно додав.

11FrYkT 
Модератор відео


З нами з: 20.02.11
Востаннє: 05.12.20
Повідомлень: 7056

2017-01-15 13:34  
Чарівний Ліхтар , мав на увазі відео, я впринципі процитував, кількість каналів вказуйте у вигліді 5.1
Чарівний Ліхтар 
Поважний учасник


З нами з: 09.10.16
Востаннє: 28.11.20
Повідомлень: 202

2017-01-15 13:40  
11FrYkT, виправив
GoDLiKeR20 
Свій


З нами з: 21.06.13
Востаннє: 03.12.20
Повідомлень: 98

2017-01-15 14:39  
Варто спробувати?
tilda4334 
VIP


З нами з: 15.08.14
Востаннє: 04.12.20
Повідомлень: 1182

2017-01-15 14:48  
GoDLiKeR20
Звісно варто, це ж Вуді Аллен)

Чарівний Ліхтар 
Поважний учасник


З нами з: 09.10.16
Востаннє: 28.11.20
Повідомлень: 202

2017-03-27 09:50  
Увага! Торрент-файл оновлено. Додано 3-6 серії з фіналом сезону.
hetzendorf 
Попереджень: 2
Попереджень: 2 


З нами з: 23.07.15
Востаннє: 05.12.20
Повідомлень: 2942

2017-03-27 22:01  
GoDLiKeR20 написано:
Варто спробувати?

Не варто — це ж Вуді Аллен >_<

OL3X 
VIP


З нами з: 25.11.15
Востаннє: 03.12.20
Повідомлень: 459

2017-03-30 23:56  
Мені сподобалось, мало хороших комедій зараз виходить, а тут є сюжет і непогані жарти. 7/10.

Додано через 23 секунди:

Дякую, Ліхтар.

leicheman 
Відео Гуртом - фільмокрай
Відео Гуртом - фільмокрай


З нами з: 03.07.14
Востаннє: 05.12.20
Повідомлень: 5709

2017-04-10 01:15  
читацький клуб розсмішив мене
а взагалі серіал про лівачку - майлі сайрус, яка промила мізки стареньким бабцям і майже "спокусила" хлопця який має одружуватися . хах

Ваш часовий пояс: GMT + 2 Години

Нова тема   Відповісти