Хешер / Hesher (2010) Remux 1080p Ukr/Eng | Sub Ukr/Eng

Нові коментарі

Нова тема   Відповісти
Автор Повідомлення
staf777 
Відео Гуртом - підтримка та поширення
Відео Гуртом - підтримка та поширення


З нами з: 16.11.16
Востаннє: 11.09.17
Повідомлень: 522

2017-01-15 00:23  
Хешер / Hesher (2010) Remux 1080p Ukr/Eng | Sub Ukr/Eng

Хешер / Hesher (2010) Remux 1080p Ukr/Eng | Sub Ukr/Eng

«Sometimes life gives you the finger and sometimes it gives you...»


Оригінальний постер

Хешер / Hesher (2010) Remux 1080p Ukr/Eng | Sub Ukr/Eng
Жанр: драма
Країна: США



Кіностудія / кінокомпанія: Last Picture Company, The, CatchPlay, Corner Store Entertainment
Режисер: Спенсер Сассер
Актори: Джозеф Гордон-Люїтт, Наталі Портман, Девін Брошу, Рейн Уілсон та інші

Сюжет:
Хешер - одинак. Він ненавидить світ і всіх, хто в ньому живе. Він ходить з давно не митим волоссям і саморобними татуюваннями, які прикрашають його тіло. Він погано харчується і курить багато сигарет. Він любить вогонь і часто підпалює різні предмети. Він мирно жив у своєму фургоні доки не зустрів Ті Джея ...


Тривалість: 01:45:55
Якість: Remux 1080p
Відео:
кодек:
розмір кадру: 1920x1080
бітрейт: 34,8 Mб/с

Аудіо # 1:
мова: українська
переклад: одноголосий закадровий | Ursulyak [ BOOGud ] | UAVoice
кодек: 2.0
бітрейт: 256 кб/с

Аудіо # 2:
мова: англійська
переклад: оригінал
кодек: -HD MA 7.1
бітрейт: 4897 кб/с

Субтитри #1:
мова: українська
тип: пререндерні
формат: PGS
примітка: переклад та синхронізація aalleexx85

Субтитри # 2-3:
мова: англійська (повні, SDH)
тип: пререндерні
формат: PGS
Info
General
Unique ID : 232969142200354086106507609383765359900 (0xAF44398679CA4D768BF8B25F07253D1C)
Complete name : E:\HDCLUB\HESHER_HDCLUB\BDMV\STREAM\Hesher (2010) [Ukr,Eng sub.Ukr,Eng] Remux 1080p [Hurtom].
Format :
Format version : Version 4 / Version 2
File size : 29.6 GiB
Duration : 1h 45mn
Overall bit rate mode : Variable
Overall bit rate : 40.0 Mbps
Movie name : Hesher (2010) [Ukr,Eng sub.Ukr,Eng] Remux 1080p [Hurtom]
Encoded date : UTC 2017-01-16 10:48:15
Writing application : mkvmerge v9.6.0 ('Slave To Your Mind') 64bit
Writing library : libebml v1.3.4 + libmatroska v1.4.5
Cover : Yes
Attachments : cover.jpg.jpg

Video
ID : 1
Format : AVC
Format/Info : Advanced Video Codec
Format profile : [email protected]
Format settings, CABAC : Yes
Format settings, ReFrames : 4 frames
Codec ID : V_MPEG4/ISO/AVC
Duration : 1h 45mn
Bit rate mode : Variable
Bit rate : 34.8 Mbps
Maximum bit rate : 37.0 Mbps
Width : 1 920 pixels
Height : 1 080 pixels
Display aspect ratio : 16:9
Frame rate mode : Constant
Frame rate : 23.976 (24000/1001) fps
Color space : YUV
Chroma subsampling : 4:2:0
Bit depth : 8 bits
Scan type : Progressive
Bits/(Pixel*Frame) : 0.700
Stream size : 25.8 GiB (87%)
Title : Hesher (2010) Remux 1080p
Default : Yes
Forced : No

Audio #1
ID : 2
Format : AC-3
Format/Info : Audio Coding 3
Mode extension : CM (complete main)
Format settings, Endianness : Big
Codec ID : A_AC3
Duration : 1h 45mn
Bit rate mode : Constant
Bit rate : 256 Kbps
Channel(s) : 2 channels
Channel positions : Front: L R
Sampling rate : 48.0 KHz
Frame rate : 31.250 fps (1536 spf)
Compression mode : Lossy
Stream size : 194 MiB (1%)
Title : | Ursulyak [ BOOGud ] | UAVoice
Language : Ukrainian
Default : Yes
Forced : Yes

Audio #2
ID : 3
Format :
Format/Info : Digital Theater Systems
Format profile : MA / Core
Mode : 16
Format settings, Endianness : Big
Codec ID : A_DTS
Duration : 1h 45mn
Bit rate mode : Variable / Constant
Bit rate : 4 897 Kbps / 1 509 Kbps
Channel(s) : 8 channels / 6 channels
Channel positions : Front: L C R, Side: L R, Back: L R, LFE / Front: L C R, Side: L R, LFE
Sampling rate : 48.0 KHz
Frame rate : 93.750 fps (512 spf)
Bit depth : 24 bits
Compression mode : Lossless / Lossy
Stream size : 3.62 GiB (12%)
Title : [Original]
Language : English
Default : No
Forced : No

Text #1
ID : 4
Format : PGS
Muxing mode : zlib
Codec ID : S_HDMV/PGS
Codec ID/Info : Picture based subtitle format used on BDs/HD-DVDs
Duration : 1h 37mn
Bit rate : 13.9 Kbps
Count of elements : 1640
Stream size : 9.65 MiB (0%)
Language : Ukrainian
Default : Yes
Forced : No

Text #2
ID : 5
Format : PGS
Muxing mode : zlib
Codec ID : S_HDMV/PGS
Codec ID/Info : Picture based subtitle format used on BDs/HD-DVDs
Duration : 1h 37mn
Bit rate : 8 126 bps
Count of elements : 2110
Stream size : 5.65 MiB (0%)
Language : English
Default : No
Forced : No

Text #3
ID : 6
Format : PGS
Muxing mode : zlib
Codec ID : S_HDMV/PGS
Codec ID/Info : Picture based subtitle format used on BDs/HD-DVDs
Duration : 1h 39mn
Bit rate : 9 751 bps
Count of elements : 2582
Stream size : 6.91 MiB (0%)
Language : English
Default : No
Forced : No
Світлини





Джерело: &
За постер подяка п.bilenkuyboy
Особиста оцінка: 0 - не дивився
Хешер / Hesher (2010) Remux 1080p Ukr/Eng | Sub Ukr/Eng


Золотий реліз (завантажене не впливає на рейтинг)
 Трекер:    Зареєстрований   

Завантажити / скачати фільм українською



відео для новачків



 Зареєстрований:   2017-01-16 15:05
 Розмір:   29.59 GB 
 Оцінка фільму:   8.1/10 (Голосів: 8)
   
Інші релізи
   Хешер / Hesher (2010) 720p Ukr/Eng | Sub Ukr/Eng 11FrYkT  4 / 0   4.56 GB   2012-08-01 11:31 
   Хешер / Hesher (2010) Ukr/Eng | sub Ukr / Eng BOOGud  2 / 0   2.04 GB   2012-07-28 14:58 
zawarudo 
Свій


З нами з: 20.11.16
Востаннє: 17.10.17
Повідомлень: 60

2017-01-15 11:31  
aaa4523 
VIP


З нами з: 26.07.13
Востаннє: 17.10.17
Повідомлень: 276

2017-01-15 11:54  
Цитата:
А чому хешер, якщо Гешер? https://uk.wikipedia.org/wiki/%D0%93%D0%B5%D1%88-%D1%84%D1%83%D0%BD%D0%BA%D1%86%D1%96%D1%8F
Останній раз внесено зміни: zawarudo (2017-01-15 10:32), редаговано 2 раз

Тому що так було перекладено та озвучено.

zawarudo 
Свій


З нами з: 20.11.16
Востаннє: 17.10.17
Повідомлень: 60

2017-01-15 12:07  
Ну добре. Тобто погано, але я зрозумів.
nickname707 
Новенький


З нами з: 18.12.16
Востаннє: 16.10.17
Повідомлень: 7

2017-01-15 12:19  
а може гашер.
chіef 
Поважний учасник


З нами з: 20.04.15
Востаннє: 17.10.17
Повідомлень: 223

2017-01-15 14:01  
zawarudo
nickname707
Розумники знайшлися. Як чуєш так і пиши! (

Дядько майже весь фільм з голим торсом проходив
Файний фільм. Ще раз можна подивитися)

Ваш часовий пояс: GMT + 2 Години

Нова тема   Відповісти