Фантастичний містер Лис / Fantastic Mr. Fox (2009) Remux 1080p Ukr/Eng | Sub Eng

Нові коментарі

Нова тема   Відповісти
Автор Повідомлення
staf777 
Відео Гуртом - підтримка та поширення
Відео Гуртом - підтримка та поширення


З нами з: 16.11.16
Востаннє: 16.08.17
Повідомлень: 522

2017-01-14 21:55  
Фантастичний містер Лис / Fantastic Mr. Fox (2009) Remux 1080p Ukr/Eng | Sub Eng

Фантастичний містер Лис / Fantastic Mr. Fox (2009) Remux 1080p Ukr/Eng | Sub Eng


Жанр: анімація, пригоди, комедія
Країна: США



Кінокомпанія: Twentieth Century Fox Film Corporation, Indian Paintbrush, Regency Enterprises
Режисер: Вес Андерсон
Актори: Джордж Клуні, Меріл Стріп, Джейсон Шварцман, Білл Мюррей, Воллес Володарскі, Ерік Чейз Андерсон, Майкл Гембон та інші

Сюжет:
Розлючені фермери, втомлені від постійних нападів "хитрого лиса" на курники, готуються знищити свого ворога та його "хитру" родину. Що вийде з цього протистояння ...


Тривалість: 01:26:44
Якість: Remux 1080p
Відео:
кодек:
розмір кадру: 1920x1080
бітрейт: 31.4 Mб/с

Аудіо # 1:
мова: українська українська
переклад:двоголосий закадровий
кодек: 5.1
бітрейт: 448 кб/с

Аудіо # 2:
мова: англійська
переклад: оригінал
кодек: -HD MA 5.1
бітрейт: 3368 кб/с

Субтитри:
мова: англійська
тип: пререндерні
формат: PGS
Info
General
Unique ID : 227810036144588662687815670631927429299 (0xAB629DF54DA0399F9D73E3BF70DCB8B3)
Complete name : E:\HDCLUB\FANTASTIC_MR_FOX_2009_REMUX_HDCLUB\BDMV\STREAM\Fantastic Mr. Fox (2009) [Ukr,Eng sub.Eng] Remux 1080p [Hurtom].
Format :
Format version : Version 4 / Version 2
File size : 21.3 GiB
Duration : 1h 26mn
Overall bit rate mode : Variable
Overall bit rate : 35.2 Mbps
Movie name : Fantastic Mr. Fox (2009) [Ukr,Eng sub.Eng] Remux 1080p [Hurtom]
Encoded date : UTC 2017-01-14 19:04:40
Writing application : mkvmerge v9.5.0 ('Quiet Fire') 64bit
Writing library : libebml v1.3.4 + libmatroska v1.4.5
Attachements : cover..jpg

Video
ID : 1
Format : AVC
Format/Info : Advanced Video Codec
Format profile : [email protected]
Format settings, CABAC : Yes
Format settings, ReFrames : 4 frames
Codec ID : V_MPEG4/ISO/AVC
Duration : 1h 26mn
Bit rate mode : Variable
Bit rate : 31.4 Mbps
Maximum bit rate : 35.0 Mbps
Width : 1 920 pixels
Height : 1 080 pixels
Display aspect ratio : 16:9
Frame rate mode : Constant
Frame rate : 23.976 (24000/1001) fps
Color space : YUV
Chroma subsampling : 4:2:0
Bit depth : 8 bits
Scan type : Progressive
Bits/(Pixel*Frame) : 0.631
Stream size : 19.0 GiB (89%)
Title : Fantastic Mr. Fox (2009) Remux 1080p [Hurtom]
Default : Yes
Forced : No
Color range : Limited
Color primaries : BT.709
Transfer characteristics : BT.709
Matrix coefficients : BT.709

Audio #1
ID : 2
Format : AC-3
Format/Info : Audio Coding 3
Mode extension : CM (complete main)
Format settings, Endianness : Big
Codec ID : A_AC3
Duration : 1h 26mn
Bit rate mode : Constant
Bit rate : 448 Kbps
Channel(s) : 6 channels
Channel positions : Front: L C R, Side: L R, LFE
Sampling rate : 48.0 KHz
Frame rate : 31.250 fps (1536 spf)
Compression mode : Lossy
Stream size : 278 MiB (1%)
Title : [UA-DVO]
Language : Ukrainian
Default : Yes
Forced : Yes

Audio #2
ID : 3
Format :
Format/Info : Digital Theater Systems
Format profile : MA / Core
Mode : 16
Format settings, Endianness : Big
Codec ID : A_DTS
Duration : 1h 26mn
Bit rate mode : Variable / Constant
Bit rate : 3 368 Kbps / 1 509 Kbps
Channel(s) : 6 channels
Channel positions : Front: L C R, Side: L R, LFE
Sampling rate : 48.0 KHz
Frame rate : 93.750 fps (512 spf)
Bit depth : 24 bits
Compression mode : Lossless / Lossy
Stream size : 2.04 GiB (10%)
Title : [ORIGINAL]
Language : English
Default : No
Forced : No

Text
ID : 4
Format : PGS
Muxing mode : zlib
Codec ID : S_HDMV/PGS
Codec ID/Info : Picture based subtitle format used on BDs/HD-DVDs
Duration : 1h 24mn
Bit rate : 10.9 Kbps
Count of elements : 1916
Stream size : 6.58 MiB (0%)
Language : English
Default : Yes
Forced : No
Скріншоти




Джерело: &
За запис сирого звуку подяка xslim та akon111
За зведення доріжки подяка MutuLI

Особиста оцінка: 0 - не дивився


Золотий реліз (завантажене не впливає на рейтинг)
 Трекер:    Зареєстрований   

Завантажити / скачати мультфільм українською



відео для новачків



 Зареєстрований:   2017-01-14 23:11
 Розмір:   21.35 GB 
 Оцінка мультфільму:   10/10 (Голосів: 5)
   
mirch1 
Новенький


З нами з: 17.06.13
Востаннє: 20.08.17
Повідомлень: 2

2017-01-17 23:28  
шикарний мульт з гумором.
цікаво і для дорослих.

tolokamoloka 
Новенький


З нами з: 29.12.16
Востаннє: 19.08.17
Повідомлень: 2

2017-08-07 19:15  
Чудовий фільм для дітей та дорослих.10 з 10.
Ваш часовий пояс: GMT + 2 Години

Нова тема   Відповісти