Арсен Мірзоян - Паперовий сніг (2015) [FLAC] | Pop-Rock

Нові коментарі

Нова тема   Відповісти
Автор Повідомлення
kolpavel 
VIP


З нами з: 04.05.14
Востаннє: 27.05.17
Повідомлень: 1132

2017-01-14 16:25  
Арсен Мірзоян - Паперовий сніг (2015) [FLAC] | Pop-Rock

Арсен Мірзоян - Паперовий сніг (2015) [FLAC] | Pop-Rock


Стиль: Pop-Rock
Країна, місто: Україна, Запоріжжя
Сайти: Офіційний сайт
Видавець: Moon Records (MR 5769-2)
Виконавці:
Арсен Мірзоян (1-10)
Арсен Мірзоян, Олексій Мочанов (11)
Пісні:
    01. Паперовий сніг
    02. Інші двері
    03. Можеш як...
    04. Таксі
    05. Мачо
    06. Небо на себе
    07. Поцілуй
    08. Медузи
    09. Стрелы
    10. Прости
    11. Исповедь гонщика

Тривалість: 00:40:25
Мова: українська, російська (8-11)
Аудіо-кодек: FLAC
Бітрейт: 971 кб/с
Джерело: трекер
Додаткова інформація:
ЕAC
Exact Audio Copy V1.3 from 2. September 2016

Отчёт EAC об извлечении, выполненном 12. января 2017, 11:05

Arsen Mirzoyan / Paperovyj snig

Дисковод: MATSHITADVD-RAM UJ8E2 S Adapter: 1 ID: 0

Режим чтения : Достоверность
Использование точного потока : Да
Отключение кэша аудио : Да
Использование указателей C2 : Нет

Коррекция смещения при чтении : 103
Способность читать области Lead-in и Lead-out : Нет
Заполнение пропущенных сэмплов тишиной : Да
Удаление блоков с тишиной в начале и конце : Нет
При вычислениях CRC использовались нулевые сэмплы : Да
Интерфейс : Встроенный Win32-интерфейс для Win NT/2000

Выходной формат : Пользовательский кодировщик
Выбранный битрейт : 128 kBit/s
Качество : Высокий
Добавление ID3-тега : Нет
Утилита сжатия : C:\FLAC ENCODER\win32\flac.exe
Дополнительные параметры : -V -8 -T "Date=%year%" -T "Genre=%genre%" %source%

TOC извлечённого CD

Трек | Старт | Длительность | Начальный сектор | Конечный сектор
---------------------------------------------------------------------
1 | 0:00.00 | 3:33.46 | 0 | 16020
2 | 3:33.46 | 3:22.38 | 16021 | 31208
3 | 6:56.09 | 3:54.26 | 31209 | 48784
4 | 10:50.35 | 3:49.65 | 48785 | 66024
5 | 14:40.25 | 3:17.52 | 66025 | 80851
6 | 17:58.02 | 4:43.06 | 80852 | 102082
7 | 22:41.08 | 3:43.06 | 102083 | 118813
8 | 26:24.14 | 3:39.41 | 118814 | 135279
9 | 30:03.55 | 3:12.67 | 135280 | 149746
10 | 33:16.47 | 3:25.25 | 149747 | 165146
11 | 36:41.72 | 3:44.01 | 165147 | 181947

Характеристики диапазона извлечения и сообщения об ошибках

Выбранный диапазон

Имя файла G:\Arsen Mirzoyan - Paperovyj snig.wav

Пиковый уровень 100.0 %
Скорость извлечения 3.9 X
Качество диапазона 100.0 %
CRC теста FE4DEC16
CRC копии FE4DEC16
Копирование... OK

Ошибок не произошло

Конец отчёта

==== Контрольная сумма отчёта 13A70DED0178AC94B16609368A5386BAB54137D041C17A1B438E884291A2921D ====
(.CUE)
REM DISCID 9009790B
REM COMMENT "ExactAudioCopy v1.3"
PERFORMER "Arsen Mirzoyan"
TITLE "Paperovyj snig"
REM COMPOSER ""
FILE "Arsen Mirzoyan - Paperovyj snig.flac" WAVE
TRACK 01 AUDIO
TITLE "Paperovyj snig"
PERFORMER "Arsen Mirzoyan"
REM COMPOSER ""
INDEX 01 00:00:00
TRACK 02 AUDIO
TITLE "Inshi dveri"
PERFORMER "Arsen Mirzoyan"
REM COMPOSER ""
INDEX 01 03:33:46
TRACK 03 AUDIO
TITLE "Mozhesh yak"
PERFORMER "Arsen Mirzoyan"
REM COMPOSER ""
INDEX 01 06:56:09
TRACK 04 AUDIO
TITLE "Taksi"
PERFORMER "Arsen Mirzoyan"
REM COMPOSER ""
INDEX 01 10:50:35
TRACK 05 AUDIO
TITLE "Macho"
PERFORMER "Arsen Mirzoyan"
REM COMPOSER ""
INDEX 01 14:40:25
TRACK 06 AUDIO
TITLE "Nebo na sebe"
PERFORMER "Arsen Mirzoyan"
REM COMPOSER ""
INDEX 01 17:58:02
TRACK 07 AUDIO
TITLE "Potsiluj"
PERFORMER "Arsen Mirzoyan"
REM COMPOSER ""
INDEX 01 22:41:08
TRACK 08 AUDIO
TITLE "Meduzy"
PERFORMER "Arsen Mirzoyan"
REM COMPOSER ""
INDEX 01 26:24:14
TRACK 09 AUDIO
TITLE "Strely"
PERFORMER "Arsen Mirzoyan"
REM COMPOSER ""
INDEX 01 30:03:55
TRACK 10 AUDIO
TITLE "Prosti"
PERFORMER "Arsen Mirzoyan"
REM COMPOSER ""
INDEX 01 33:16:47
TRACK 11 AUDIO
TITLE "Ispoved' gonschika"
PERFORMER "Arsen Mirzoyan"
REM COMPOSER ""
INDEX 01 36:41:72
Лог якостi
AUDIOCHECKER v2.0 beta (build 457) - by Dester - [email protected]
~~~~~~~~~~~~~~~~~~~~~~~~~~~~~~~~~~

Started at: ïÿòíèöà, 13. 01. 2017. - 9:07.44
11 files found

01 -===- G:\Arsen Mirzoyan - Paperovyj snig\Output\(05) [Arsen Mirzoyan] Macho.flac
Extracted successfully
Conclusion: this track is CDDA with probability 99%
Tempfile successfully deleted.

02 -===- G:\Arsen Mirzoyan - Paperovyj snig\Output\(06) [Arsen Mirzoyan] Nebo na sebe.flac
Extracted successfully
Conclusion: this track is CDDA with probability 100%
Tempfile successfully deleted.

03 -===- G:\Arsen Mirzoyan - Paperovyj snig\Output\(07) [Arsen Mirzoyan] Potsiluj.flac
Extracted successfully
Conclusion: this track is CDDA with probability 100%
Tempfile successfully deleted.

04 -===- G:\Arsen Mirzoyan - Paperovyj snig\Output\(08) [Arsen Mirzoyan] Meduzy.flac
Extracted successfully
Conclusion: this track is CDDA with probability 100%
Tempfile successfully deleted.

05 -===- G:\Arsen Mirzoyan - Paperovyj snig\Output\(09) [Arsen Mirzoyan] Strely.flac
Extracted successfully
Conclusion: this track is CDDA with probability 100%
Tempfile successfully deleted.

06 -===- G:\Arsen Mirzoyan - Paperovyj snig\Output\(10) [Arsen Mirzoyan] Prosti.flac
Extracted successfully
Conclusion: this track is CDDA with probability 100%
Tempfile successfully deleted.

07 -===- G:\Arsen Mirzoyan - Paperovyj snig\Output\(11) [Arsen Mirzoyan] Ispoved' gonschika.flac
Extracted successfully
Conclusion: this track is CDDA with probability 100%
Tempfile successfully deleted.

08 -===- G:\Arsen Mirzoyan - Paperovyj snig\Output\(01) [Arsen Mirzoyan] Paperovyj snig.flac
Extracted successfully
Conclusion: this track is CDDA with probability 99%
Tempfile successfully deleted.

09 -===- G:\Arsen Mirzoyan - Paperovyj snig\Output\(02) [Arsen Mirzoyan] Inshi dveri.flac
Extracted successfully
Conclusion: this track is CDDA with probability 100%
Tempfile successfully deleted.

10 -===- G:\Arsen Mirzoyan - Paperovyj snig\Output\(03) [Arsen Mirzoyan] Mozhesh yak.flac
Extracted successfully
Conclusion: this track is CDDA with probability 100%
Tempfile successfully deleted.

11 -===- G:\Arsen Mirzoyan - Paperovyj snig\Output\(04) [Arsen Mirzoyan] Taksi.flac
Extracted successfully
Conclusion: this track is CDDA with probability 100%
Tempfile successfully deleted.

Finished at: ïÿòíèöà, 13. 01. 2017. - 9:10.52 (operation time: 0:03.08)


Якщо Ви справді бажаєте підтримати українське - після прослуховування, якщо музика вам сподобалась, придбайте ліцензійний диск. Підтримаймо вітчизняних виконавців!


Срібний реліз (на рейтинг впливає 50% завантаженого)
 Трекер:    Зареєстрований   

Завантажити / скачати українську музику



відео для новачків



 Зареєстрований:   2017-01-14 21:16
 Розмір:   281 MB 
 Оцінка музики:   9.7/10 (Голосів: 7)
   
ssTAss 
Модератор музики


З нами з: 05.07.08
Востаннє: 28.05.17
Повідомлень: 11419

2017-01-14 16:31  
kolpavel написано:
Мова: українська

та ну.. у всіх треках?
вже й Мірзоян кацапською заспівав

kolpavel 
VIP


З нами з: 04.05.14
Востаннє: 27.05.17
Повідомлень: 1132

2017-01-14 16:41  
Та то ... друкарська помилка. Їй Богу, краще нехай вірменською спiва. Або мовчить.
Loud_Swir 
Новенький


З нами з: 14.10.10
Востаннє: 27.03.17
Повідомлень: 2

2017-01-14 19:31  
Релиз 15 года, почему вы решили, что 16?

ssTAss 
Модератор музики


З нами з: 05.07.08
Востаннє: 28.05.17
Повідомлень: 11419

2017-01-14 19:41  
Loud_Swir
в нас спілкуються українською

Loud_Swir 
Новенький


З нами з: 14.10.10
Востаннє: 27.03.17
Повідомлень: 2

2017-01-14 19:45  
Питання залишається, чому 16 рік?
ssTAss 
Модератор музики


З нами з: 05.07.08
Востаннє: 28.05.17
Повідомлень: 11419

2017-01-14 20:44  
Loud_Swir написано:
Питання залишається, чому 16 рік?

агов, релізере! і справді, чому?
думав може виклали перевидання, але глянув по звіту - в джерелі 2015

kolpavel 
VIP


З нами з: 04.05.14
Востаннє: 27.05.17
Повідомлень: 1132

2017-01-14 21:02  
Вибачаюсь - час летить. Все замінив. Я був упевнений, старiю.
Ваш часовий пояс: GMT + 2 Години

Нова тема   Відповісти