Багатенький Річі / Richie Rich (1994) 1080p 2xUkr/Eng | sub Eng

Нові коментарі

Нова тема   Відповісти
Автор Повідомлення
staf777 
Відео Гуртом - підтримка та поширення
Відео Гуртом - підтримка та поширення


З нами з: 16.11.16
Востаннє: 16.03.17
Повідомлень: 523

2017-01-14 02:55  
Багатенький Річі / Richie Rich (1994) 1080p 2xUkr/Eng | sub Eng

Багатенький Річі / Richie Rich (1994) 1080p 2xUkr/Eng | sub Eng


Жанр: комедія, сімейний
Країна: США



Кінокомпанія: Warner Bros. Pictures, Silver Pictures, Davis Entertainment
Режисер: Дональд Петрі
Актори: Маколей Калкін, Джон Ларрокет, Едвард Херрманн, Джонатан Хайд, Крістін Еберсол, Стефі Лайнберг, Челсі Росс та інші.

Сюжет:
Комедія, яку знято на основі популярних у США коміксів. 12-річний Річі (М. Калкін) - найбагатший хлопчик у світі. Він народився у родині мультимільйонерів, його навчали всьому, що може знадобитися майбутньому бізнесмену, але у нього не було друзів. Одного дня негідник, який працював на його батька, підклав у власний літак родини бомбу. Однак його план зірвався: Річі не захотів летіти і залишився вдома, а батько під час польоту помітив бомбу і викинув її. Проте вона все ж таки пошкодила літак, і батьки Річі опинилися в океані, відрізані від навколишнього світу. Річі бере на себе керування фінансовою імперією і починає боротьбу з ворогом... Фінал стрічки пародіює класичний трилер Хічкока «З півночі до північного заходу».


Тривалість: 01:30:36
Якість: 1080p
Відео:
кодек:
розмір кадру: 1920x1080
бітрейт: 12.2 Мб/с

Аудіо # 1:
мова: українська
переклад: багатоголосий закадровий
кодек: 2.0
бітрейт: 192 кб/с

Аудіо # 2:
мова: українська
переклад: багатоголосий закадровий
кодек: 2.0
бітрейт: 192 кб/с

Аудіо # 3:
мова: англійська
переклад: оригінал
кодек: 5.1
бітрейт: 384 кб/с

Субтитри:
мова: англійська
тип: програмні (м'які) (iTunes)
формат: *.srt
Info
General
Unique ID : 174502020097287657539364229116208929132 (0x8347DDD896E72689AC4F33C9BFA8D96C)
Complete name : F:\» HD українською » Фільми в HD\Комедія\Richie Rich (1994) [2xUkr,Eng sub.Eng] 1080p [Hurtom].
Format :
Format version : Version 4 / Version 2
File size : 8.55 GiB
Duration : 1h 34mn
Overall bit rate mode : Variable
Overall bit rate : 13.0 Mbps
Movie name : Richie Rich (1994) [2xUkr,Eng sub.Eng] 1080p [Hurtom]
Encoded date : UTC 2017-01-14 13:13:08
Writing application : mkvmerge v9.5.0 ('Quiet Fire') 64bit
Writing library : libebml v1.3.4 + libmatroska v1.4.5
Attachements : cover..jpg

Video
ID : 1
Format : AVC
Format/Info : Advanced Video Codec
Format profile : [email protected]
Format settings, CABAC : Yes
Format settings, ReFrames : 4 frames
Codec ID : V_MPEG4/ISO/AVC
Duration : 1h 34mn
Bit rate mode : Variable
Bit rate : 12.2 Mbps
Maximum bit rate : 15.0 Mbps
Width : 1 920 pixels
Height : 1 080 pixels
Display aspect ratio : 16:9
Frame rate mode : Constant
Frame rate : 23.976 (24000/1001) fps
Color space : YUV
Chroma subsampling : 4:2:0
Bit depth : 8 bits
Scan type : Progressive
Bits/(Pixel*Frame) : 0.245
Stream size : 8.04 GiB (94%)
Title : 1080p
Writing library : core 148 r2623 d5b2374
Encoding settings : cabac=1 / ref=4 / deblock=1:-1:-1 / analyse=0x3:0x133 / me=umh / subme=9 / psy=1 / psy_rd=1.00:0.15 / mixed_ref=1 / me_range=24 / chroma_me=1 / trellis=2 / 8x8dct=1 / cqm=0 / deadzone=21,11 / fast_pskip=1 / chroma_qp_offset=-3 / threads=34 / lookahead_threads=5 / sliced_threads=0 / nr=150 / decimate=1 / interlaced=0 / bluray_compat=0 / constrained_intra=0 / bframes=8 / b_pyramid=2 / b_adapt=2 / b_bias=0 / direct=3 / weightb=1 / open_gop=0 / weightp=2 / keyint=120 / keyint_min=61 / scenecut=0 / intra_refresh=0 / rc_lookahead=120 / rc=crf / mbtree=1 / crf=18.0 / qcomp=0.60 / qpmin=0 / qpmax=69 / qpstep=4 / vbv_maxrate=15000 / vbv_bufsize=31250 / crf_max=0.0 / nal_hrd=vbr / filler=0 / ip_ratio=1.40 / aq=3:1.00
Language : English
Default : Yes
Forced : No
Color range : Limited
Color primaries : BT.709
Transfer characteristics : BT.709
Matrix coefficients : BT.709

Audio #1
ID : 2
Format : AC-3
Format/Info : Audio Coding 3
Mode extension : CM (complete main)
Format settings, Endianness : Big
Codec ID : A_AC3
Duration : 1h 34mn
Bit rate mode : Constant
Bit rate : 192 Kbps
Channel(s) : 2 channels
Channel positions : Front: L R
Sampling rate : 48.0 KHz
Frame rate : 31.250 fps (1536 spf)
Compression mode : Lossy
Stream size : 130 MiB (1%)
Title : 2.0 192Kbps (UA-MVO- Новий канал)
Language : Ukrainian
Default : Yes
Forced : Yes

Audio #2
ID : 3
Format : AC-3
Format/Info : Audio Coding 3
Mode extension : CM (complete main)
Format settings, Endianness : Big
Codec ID : A_AC3
Duration : 1h 34mn
Bit rate mode : Constant
Bit rate : 192 Kbps
Channel(s) : 2 channels
Channel positions : Front: L R
Sampling rate : 48.0 KHz
Frame rate : 31.250 fps (1536 spf)
Compression mode : Lossy
Stream size : 130 MiB (1%)
Title : 2.0 192Kbps (UA-MVO - 1+1)
Language : Ukrainian
Default : No
Forced : No

Audio #3
ID : 4
Format : AC-3
Format/Info : Audio Coding 3
Mode extension : CM (complete main)
Format settings, Endianness : Big
Codec ID : A_AC3
Duration : 1h 34mn
Bit rate mode : Constant
Bit rate : 384 Kbps
Channel(s) : 6 channels
Channel positions : Front: L C R, Side: L R, LFE
Sampling rate : 48.0 KHz
Frame rate : 31.250 fps (1536 spf)
Compression mode : Lossy
Stream size : 260 MiB (3%)
Title : 5.1 384Kbps (Original)
Language : English
Default : No
Forced : No

Text
ID : 5
Format : UTF-8
Codec ID : S_TEXT/UTF8
Codec ID/Info : UTF-8 Plain Text
Duration : 1h 33mn
Bit rate : 64 bps
Count of elements : 1196
Stream size : 44.4 KiB (0%)
Title : (iTunes)
Language : English
Default : No
Forced : No

Menu
00:00:00.000 : en:1
00:04:43.408 : en:2
00:09:20.268 : en:3
00:12:19.738 : en:4
00:15:05.737 : en:5
00:16:43.585 : en:6
00:21:12.437 : en:7
00:24:24.670 : en:8
00:27:18.385 : en:9
00:31:15.622 : en:10
00:35:02.223 : en:11
00:38:09.702 : en:12
00:40:42.271 : en:13
00:44:47.641 : en:14
00:48:37.162 : en:15
00:52:31.229 : en:16
00:55:38.958 : en:17
00:58:03.352 : en:18
01:03:28.385 : en:19
01:08:26.933 : en:20
01:09:00.675 : en:21
01:11:37.707 : en:22
01:14:30.713 : en:23
01:16:38.423 : en:24
01:19:48.488 : en:25
01:22:13.216 : en:26
01:25:10.852 : en:27
01:28:59.246 : en:28
01:30:33.132 : en:29
Скріншоти






Джерело: &
Особиста оцінка: 8 - мені сподобалося


Срібний реліз (на рейтинг впливає 50% завантаженого)
 Трекер:    Зареєстрований   

Завантажити / скачати фільм українською



відео для новачків



 Зареєстрований:   2017-01-14 16:57
 Розмір:   8.55 GB 
 Оцінка фільму:   7.7/10 (Голосів: 6)
   
Інші релізи
   Багатенький Річі / Richie Rich (1994) 2xUkr/Eng | Sub Eng karvai0  7 / 0   2.19 GB   2010-12-27 03:59 
   Багатенький Річі / Richie Rich (1994) robotron005  0 / 3   874 MB   2009-03-14 19:54 
Hentaihunter 
VIP


З нами з: 16.08.08
Востаннє: 28.05.17
Повідомлень: 2314

2017-01-14 11:28  
Звідкі українські 5.1?
staf777 
Відео Гуртом - підтримка та поширення
Відео Гуртом - підтримка та поширення


З нами з: 16.11.16
Востаннє: 16.03.17
Повідомлень: 523

2017-01-14 15:18  
Hentaihunter
звідси - https://toloka.to/t19811

Hentaihunter 
VIP


З нами з: 16.08.08
Востаннє: 28.05.17
Повідомлень: 2314

2017-01-14 15:43  
А ви перевіряли їх на автентичність? Бо у вашому посиланні геть нічого не сказано про те, як їх створили. Наприклад, у моєму старому релізі DVD з доріжкою від 1+1: https://toloka.to/t7476 тоді я просто замінив центральний канал, що є абсолютно неправильно. Тому при викладенні релізу з неоригінальними українськими доріжками 5.1 не соромтеся розпитувати в їхніх творців як ті їх робили. Краще чесне стерео ніж халтурне 5.1.
staf777 
Відео Гуртом - підтримка та поширення
Відео Гуртом - підтримка та поширення


З нами з: 16.11.16
Востаннє: 16.03.17
Повідомлень: 523

2017-01-14 15:58  
Hentaihunter
Упс тільки що начитав перевіряти аудіо і нічого не зрозумів звук що в одній що в іншій абсолютно не співпадає з відео - видаляю доріжки візьму краще з HDCluba - , 2/0 (L,R) ch, 192 кб/с

11FrYkT 
Модератор відео


З нами з: 20.02.11
Востаннє: 28.05.17
Повідомлень: 3681

2017-01-14 16:24  
staf777 , а я звук з двд може стати під веб без підгонки?
staf777 
Відео Гуртом - підтримка та поширення
Відео Гуртом - підтримка та поширення


З нами з: 16.11.16
Востаннє: 16.03.17
Повідомлень: 523

2017-01-14 16:35  
11FrYkT
Вот тож дійшло вже до мене

Ваш часовий пояс: GMT + 2 Години

Нова тема   Відповісти