Не бий копитом / Home On The Range (2004) 1080p Ukr/Eng | Sub Eng

Нові коментарі

Нова тема   Відповісти
Автор Повідомлення
staf777 
Відео Гуртом - підтримка та поширення
Відео Гуртом - підтримка та поширення


З нами з: 16.11.16
Востаннє: 16.08.17
Повідомлень: 522

2017-01-13 00:12  
Не бий копитом / Home On The Range (2004) 1080p Ukr/Eng | Sub Eng

Не бий копитом / Home On The Range (2004) 1080p Ukr/Eng | Sub Eng


Жанр: анімація, комедія, вестерн
Країна: США



Режисер: Вілл Фінн/Will Finn, Джон Сенфорд/John Sanford
Актори: Роузенн/Roseanne/, Джуді Денч/Judi Dench/, Дженіфер Тіллі/Jennifer Tilly/, Кьюба Гудінг-мол./Cuba Gooding Jr./, Ренді Куейд/Randy Quaid/, Девід Бернем/David Burnham/, Стів Бусемі/Steve Buscemi/

Сюжет:
Життя на фермі просте і вільне. Господарі і вихованці живуть душа в душу, співають пісні і веселяться. Але раптово цій ідилії приходить кінець. На зміну збанкрутілим власникам ферми приходить безжальний ділок, охочий продати землю і позбавитися тварин. Природно, це не влаштовує звиклих до солодкого життя чотириногих і пернатих мешканців. Починається приголомшливо смішна партизанська війна. Керівниками бунту виступають кінь Бак і три корови-непосиди, що вирішили піти на все, щоб врятувати ферму від розорення. Хто переможе в цій битві? Не знаємо як ви, а парнокопитні упевнені у власних силах.


Тривалість: 01:16:12
Якість: 1080p
Відео:
кодек:
розмір кадру: 1920x1080
бітрейт: 9500 кб/с

Аудіо # 1:
мова: українська
переклад: професійний дубльований
кодек: 2.0
бітрейт: 192 кб/с

Аудіо # 2:
мова: англійська
переклад: оригінал
кодек: 5.1
бітрейт: 1509 кб/с

Аудіо # 3:
мова: англійська
переклад: оригінал
кодек: 2.0
бітрейт: 320 кб/с |Commentary by producer Alice Dewey and co-writers/co-directors Will Finn and John Sanford|

Субтитри(full):
мова: англійська
тип: програмні (м'які)
формат: *.srt

Субтитри(SDH):
мова: англійська
тип: програмні (м'які)
формат: *.srt

Субтитри(Commentary):
мова: англійська
тип: програмні (м'які)
формат: *.srt
Info
General
Unique ID : 201774655214171645096255785904799991049 (0x97CC62929B4675FC8C88069FC3C7C509)
Complete name : E:\HDCLUB\Home on the Range (2004) [Ukr,Eng sub.Eng] 1080p [Hurtom].
Format :
Format version : Version 4 / Version 2
File size : 6.14 GiB
Duration : 1h 16mn
Overall bit rate : 11.5 Mbps
Movie name : Home on the Range (2004) [Ukr,Eng sub.Eng] 1080p [Hurtom]
Encoded date : UTC 2017-01-14 17:41:32
Writing application : mkvmerge v9.5.0 ('Quiet Fire') 64bit
Writing library : libebml v1.3.4 + libmatroska v1.4.5
Attachements : cover..jpg

Video
ID : 1
Format : AVC
Format/Info : Advanced Video Codec
Format profile : [email protected]
Format settings, CABAC : Yes
Format settings, ReFrames : 4 frames
Codec ID : V_MPEG4/ISO/AVC
Duration : 1h 16mn
Bit rate : 9 500 Kbps
Width : 1 920 pixels
Height : 1 080 pixels
Display aspect ratio : 16:9
Frame rate mode : Constant
Frame rate : 23.976 (24000/1001) fps
Color space : YUV
Chroma subsampling : 4:2:0
Bit depth : 8 bits
Scan type : Progressive
Bits/(Pixel*Frame) : 0.191
Stream size : 5.06 GiB (82%)
Title : Release for [Hurtom]
Writing library : core 125 r2200 999b753
Encoding settings : cabac=1 / ref=4 / deblock=1:1:1 / analyse=0x3:0x113 / me=umh / subme=11 / psy=1 / psy_rd=0.40:0.00 / mixed_ref=1 / me_range=32 / chroma_me=1 / trellis=2 / 8x8dct=1 / cqm=0 / deadzone=21,11 / fast_pskip=1 / chroma_qp_offset=-2 / threads=9 / lookahead_threads=1 / sliced_threads=0 / nr=0 / decimate=1 / interlaced=0 / bluray_compat=0 / constrained_intra=0 / bframes=7 / b_pyramid=2 / b_adapt=2 / b_bias=0 / direct=1 / weightb=1 / open_gop=0 / weightp=2 / keyint=240 / keyint_min=23 / scenecut=40 / intra_refresh=0 / rc=2pass / mbtree=0 / bitrate=9500 / ratetol=1.0 / qcomp=0.70 / qpmin=0 / qpmax=69 / qpstep=4 / cplxblur=20.0 / qblur=0.5 / ip_ratio=1.40 / pb_ratio=1.30 / aq=1:0.60
Language : English
Default : Yes
Forced : No
Color range : Limited
Color primaries : BT.709
Transfer characteristics : BT.709
Matrix coefficients : BT.709

Audio #1
ID : 2
Format : AC-3
Format/Info : Audio Coding 3
Mode extension : CM (complete main)
Format settings, Endianness : Big
Codec ID : A_AC3
Duration : 1h 16mn
Bit rate mode : Constant
Bit rate : 192 Kbps
Channel(s) : 1 channel
Channel positions : Front: C
Sampling rate : 48.0 KHz
Frame rate : 31.250 fps (1536 spf)
Compression mode : Lossy
Stream size : 105 MiB (2%)
Title : 2.0 @ 192 kbps
Language : Ukrainian
Default : Yes
Forced : Yes

Audio #2
ID : 3
Format :
Format/Info : Digital Theater Systems
Mode : 16
Format settings, Endianness : Big
Codec ID : A_DTS
Duration : 1h 16mn
Bit rate mode : Constant
Bit rate : 1 510 Kbps
Channel(s) : 6 channels
Channel positions : Front: L C R, Side: L R, LFE
Sampling rate : 48.0 KHz
Frame rate : 93.750 fps (512 spf)
Bit depth : 24 bits
Compression mode : Lossy
Stream size : 823 MiB (13%)
Title : 5.1 @ 1509 kbps
Language : English
Default : No
Forced : No

Audio #3
ID : 4
Format : AC-3
Format/Info : Audio Coding 3
Mode extension : CM (complete main)
Format settings, Endianness : Big
Codec ID : A_AC3
Duration : 1h 16mn
Bit rate mode : Constant
Bit rate : 320 Kbps
Channel(s) : 2 channels
Channel positions : Front: L R
Sampling rate : 48.0 KHz
Frame rate : 31.250 fps (1536 spf)
Compression mode : Lossy
Stream size : 174 MiB (3%)
Title : 2.0 @ 320 kbps |Commentary by producer Alice Dewey and co-writers/co-directors Will Finn and John Sanford|
Language : English
Default : No
Forced : No

Text #1
ID : 5
Format : UTF-8
Codec ID : S_TEXT/UTF8
Codec ID/Info : UTF-8 Plain Text
Duration : 1h 9mn
Bit rate : 71 bps
Count of elements : 1081
Stream size : 36.4 KiB (0%)
Title : full
Language : English
Default : No
Forced : No

Text #2
ID : 6
Format : UTF-8
Codec ID : S_TEXT/UTF8
Codec ID/Info : UTF-8 Plain Text
Duration : 1h 15mn
Bit rate : 71 bps
Count of elements : 1214
Stream size : 39.7 KiB (0%)
Title : sdh
Language : English
Default : No
Forced : No

Text #3
ID : 7
Format : UTF-8
Codec ID : S_TEXT/UTF8
Codec ID/Info : UTF-8 Plain Text
Duration : 1h 15mn
Bit rate : 164 bps
Count of elements : 1655
Stream size : 91.8 KiB (0%)
Title : commentary
Language : English
Default : No
Forced : No
Скріншоти









Джерело: &
Особиста оцінка: 0 - не дивився
Не бий копитом / Home On The Range (2004) 1080p Ukr/Eng | Sub Eng


Срібний реліз (на рейтинг впливає 50% завантаженого)
 Трекер:    Зареєстрований   

Завантажити / скачати мультфільм українською



відео для новачків



 Зареєстрований:   2017-01-14 21:29
 Розмір:   6.14 GB 
 Оцінка мультфільму:   8/10 (Голосів: 4)
   
Інші релізи
   Не бий копитом / Home On The Range (2004) Ukr/Eng xslim  7 / 0   1.45 GB   2014-12-07 15:41 
   Не бий копитом / Home On The Range (2004) 720p Ukr/Eng | Sub Eng 11FrYkT  3 / 0   3.01 GB   2012-07-26 17:40 
   Не бий копитом / Home On The Range (2004) ata  4 / 0   1.01 GB   2008-12-08 20:45 
Ваш часовий пояс: GMT + 2 Години

Нова тема   Відповісти