Принцеса і жаба / The Princess and the Frog (2009) Remux 1080p Ukr/Eng | Sub Ukr/Eng

Нові коментарі

Нова тема   Відповісти
Автор Повідомлення
staf777 
Відео Гуртом - підтримка та поширення
Відео Гуртом - підтримка та поширення


З нами з: 16.11.16
Востаннє: 16.08.17
Повідомлень: 522

2017-01-11 20:05  
Принцеса і жаба / The Princess and the Frog (2009) Remux 1080p Ukr/Eng | Sub Ukr/Eng


Ще постер

Принцеса і жаба / The Princess and the Frog (2009) Remux 1080p Ukr/Eng | Sub Ukr/Eng

Жанр: сімейний, фентезі, мюзикл, романтичний
Країна: США



Кіностудія / кінокомпанія: Walt Disney Animation Studios
Режисер: Рон Клементс, Джон Маскер
Сюжет:
«Принцеса і Жаба» - це стара казка на новий лад від студії Діснея.
У сучасній історії за мотивами улюбленної казки події відбуваються у Новому Орлеані, батьківщині джазу. Головні герої - прекрасна принцеса та принц, якого перетворили на жабу. Щоб знову стати людиною, йому потрібен лише один поцілунок...Тільки тут ви побачите співочого крокодила, кумедного світлячка та багато чого іншого!


Тривалість: 01:37:27
Якість: Remux 1080p
Відео:
кодек:
розмір кадру: 1920x1080
бітрейт: 23972 кб/с

Аудіо #1:
мова: українська
переклад: професійний дубльований
кодек: 5.1
бітрейт: 640 кб/с

Аудіо #2:
мова: англійська
переклад: оригінал
кодек: -HD MA 5.1
бітрейт: 3750 кб/с

Аудіо #3:
мова: англійська
переклад: (коментарі)
кодек: 2.0
бітрейт: 192 кб/с

Субтитри #1:
мова: українська
тип: пререндерні
формат: PGS

Субтитри #2:
мова: українська (форсовані)
тип: пререндерні
формат: PGS

Субтитри #3:
мова: українська (коментарі)
тип: пререндерні
формат: PGS

Субтитри #4:
мова: англійська
тип: пререндерні
формат: PGS

Субтитри #5:
мова: англійська (коментарі)
тип: пререндерні
формат: PGS
Info
General
Unique ID : 177585698843832505147914525612838021570 (0x8599C2F24EDADEC28734C2281340E9C2)
Complete name : F:\» HD українською » Мультфільми в HD\The Princess and the Frog (2009)[Ukr,Eng sub.Ukr,Eng] Remux 1080p [Hurtom].
Format :
Format version : Version 4 / Version 2
File size : 19.5 GiB
Duration : 1h 37mn
Overall bit rate mode : Variable
Overall bit rate : 28.6 Mbps
Movie name : The Princess and the Frog (2009)[Ukr,Eng sub.Ukr,Eng] Remux 1080p [Hurtom]
Encoded date : UTC 2017-01-12 15:50:55
Writing application : mkvmerge v9.5.0 ('Quiet Fire') 64bit
Writing library : libebml v1.3.4 + libmatroska v1.4.5
Attachements : cover.jpg..jpg

Video
ID : 1
Format : AVC
Format/Info : Advanced Video Codec
Format profile : [email protected]
Format settings, CABAC : Yes
Format settings, ReFrames : 4 frames
Codec ID : V_MPEG4/ISO/AVC
Duration : 1h 37mn
Bit rate mode : Variable
Bit rate : 24.0 Mbps
Maximum bit rate : 31.0 Mbps
Width : 1 920 pixels
Height : 1 080 pixels
Display aspect ratio : 16:9
Frame rate mode : Constant
Frame rate : 23.976 (24000/1001) fps
Color space : YUV
Chroma subsampling : 4:2:0
Bit depth : 8 bits
Scan type : Progressive
Bits/(Pixel*Frame) : 0.482
Stream size : 16.3 GiB (84%)
Title : The Princess and the Frog (2009) Remux 1080p
Default : Yes
Forced : No
Color range : Limited
Color primaries : BT.709
Transfer characteristics : BT.709
Matrix coefficients : BT.709

Audio #1
ID : 2
Format : AC-3
Format/Info : Audio Coding 3
Mode extension : CM (complete main)
Format settings, Endianness : Big
Codec ID : A_AC3
Duration : 1h 37mn
Bit rate mode : Constant
Bit rate : 640 Kbps
Channel(s) : 6 channels
Channel positions : Front: L C R, Side: L R, LFE
Sampling rate : 48.0 KHz
Frame rate : 31.250 fps (1536 spf)
Compression mode : Lossy
Stream size : 446 MiB (2%)
Title : [UA-DUB]| Blu-ray CEE|
Language : Ukrainian
Default : Yes
Forced : Yes

Audio #2
ID : 3
Format :
Format/Info : Digital Theater Systems
Format profile : MA / Core
Mode : 16
Format settings, Endianness : Big
Codec ID : A_DTS
Duration : 1h 37mn
Bit rate mode : Variable / Constant
Bit rate : 3 750 Kbps / 1 509 Kbps
Channel(s) : 6 channels
Channel positions : Front: L C R, Side: L R, LFE
Sampling rate : 48.0 KHz
Frame rate : 93.750 fps (512 spf)
Bit depth : 24 bits
Compression mode : Lossless / Lossy
Stream size : 2.55 GiB (13%)
Title : Original
Language : English
Default : No
Forced : No

Audio #3
ID : 4
Format : AC-3
Format/Info : Audio Coding 3
Mode extension : CM (complete main)
Format settings, Endianness : Big
Codec ID : A_AC3
Duration : 1h 37mn
Bit rate mode : Constant
Bit rate : 192 Kbps
Channel(s) : 2 channels
Channel positions : Front: L R
Sampling rate : 48.0 KHz
Frame rate : 31.250 fps (1536 spf)
Compression mode : Lossy
Stream size : 134 MiB (1%)
Title : (коментарі)
Language : English
Default : No
Forced : No

Text #1
ID : 5
Format : PGS
Muxing mode : zlib
Codec ID : S_HDMV/PGS
Codec ID/Info : Picture based subtitle format used on BDs/HD-DVDs
Duration : 1h 29mn
Bit rate : 12.6 Kbps
Count of elements : 2658
Stream size : 8.05 MiB (0%)
Language : Ukrainian
Default : Yes
Forced : No

Text #2
ID : 6
Format : PGS
Muxing mode : zlib
Codec ID : S_HDMV/PGS
Codec ID/Info : Picture based subtitle format used on BDs/HD-DVDs
Duration : 1h 30mn
Bit rate : 180 bps
Count of elements : 76
Stream size : 119 KiB (0%)
Language : Ukrainian
Default : No
Forced : No

Text #3
ID : 7
Format : PGS
Muxing mode : zlib
Codec ID : S_HDMV/PGS
Codec ID/Info : Picture based subtitle format used on BDs/HD-DVDs
Duration : 1h 37mn
Bit rate : 29.4 Kbps
Count of elements : 4286
Stream size : 20.5 MiB (0%)
Language : Ukrainian
Default : No
Forced : No

Text #4
ID : 8
Format : PGS
Muxing mode : zlib
Codec ID : S_HDMV/PGS
Codec ID/Info : Picture based subtitle format used on BDs/HD-DVDs
Duration : 1h 29mn
Bit rate : 13.0 Kbps
Count of elements : 2622
Stream size : 8.32 MiB (0%)
Language : English
Default : No
Forced : No

Text #5
ID : 9
Format : PGS
Muxing mode : zlib
Codec ID : S_HDMV/PGS
Codec ID/Info : Picture based subtitle format used on BDs/HD-DVDs
Duration : 1h 33mn
Bit rate : 15.3 Kbps
Count of elements : 3332
Stream size : 10.2 MiB (0%)
Language : English
Default : No
Forced : No
Скріншоти










Джерело:
Особиста оцінка: 10 - без зайвих вагань рекомендую всім!


Золотий реліз (завантажене не впливає на рейтинг)
 Трекер:    Зареєстрований   

Завантажити / скачати мультфільм українською



відео для новачків



 Зареєстрований:   2017-01-12 20:09
 Розмір:   19.49 GB 
 Оцінка мультфільму:   5.5/10 (Голосів: 4)
   
380983801076 
Свій


З нами з: 30.03.12
Востаннє: 24.08.17
Повідомлень: 134

2017-01-11 23:26  
"Тільки тут ви побачите співочого крокодила, кумедного світлячка та багато чого іншого!" та чорну принцесу.
Ваш часовий пояс: GMT + 2 Години

Нова тема   Відповісти