Каратель / The Punisher (1989) Remux 1080p 2xUkr/Eng | sub Eng

Нові коментарі

Нова тема   Відповісти
Останній раз роздавалося LevM (2020-09-21)
Автор Повідомлення
staf777 
Відео Гуртом - підтримка та поширення
Відео Гуртом - підтримка та поширення


З нами з: 16.11.16
Востаннє: 20.09.20
Повідомлень: 4023

2017-01-10 19:43  
Каратель / The Punisher (1989) Remux 1080p 2xUkr/Eng | sub Eng

Каратель / The Punisher (1989) Remux 1080p 2xUkr/Eng | sub Eng


Жанр: бойовик, кримінальний, драма
Країна: Австралія, США



Кінокомпанія: New World Pictures, Marvel Entertainment
Режисер: Марк Ґолдблатт (Mark Goldblatt)
Актори: Дольф Лундґрен (Dolph Lundgren), Луі Ґоссетт мол. (Louis Gossett Jr.), Джероен Краббе (Jeroen Krabbe), Кім Міворі (Kim Miyori), Браян Маршалл (Bryan Marshall) та інші.

Сюжет:
Поліцейський Френк Кастл насилу пережив загибель сім'ї, його дружина і дочка згоріли живцем у підірваному автомобілі. Тепер він став суддею і катом 125 гангстерів, яких він розшукав і засудив до смерті. Його неможливо зупинити. Але в нього занадто багато ворогів ...


Тривалість: 01:29:05
Якість: Remux 1080p
Відео:
кодек:
розмір кадру: 1920x1080
бітрейт: 30 Mб/с

Аудіо # 1:
мова: українська
переклад: двоголосий закадровий
кодек: 2.0
бітрейт: 192 кб/с
Інформація про озвучення
Студія «1+1» на замовлення телеканалу "1+1"

Ролі озвучили: Володимир Нечепоренко і Лариса Руснак
Аудіо # 2:
мова: українська
переклад: двоголосий закадровий
кодек: 2.0
бітрейт: 192 кб/с
примітка: фільм сильно порізали, тому присутні вставки від 1+1

Аудіо # 3:
мова: англійська
переклад: оригінал
кодек: -HD MA 5.1
бітрейт: 1985 кб/с

Субтитри:
мова: англійська
тип: пререндерні
формат:PGS

Info
Код:

General
Unique ID                   : 321126976213507974619131067663936571587 (0xF196CE5258C712F89F516CEE3506C8C3)
Complete name               : F:\» HD українською » Фільми в HD\Бойовик\The Punisher (1989) Remux 1080p [2xUKR][ENG][Hurtom].
Format                      :
Format version              : Version 4 / Version 2
File size                   : 20.1 GiB
Duration                    : 1 h 29 min
Overall bit rate mode       : Variable
Overall bit rate            : 32.4 Mb/s
Movie name                  : The Punisher (1989) Remux 1080p [2xUKR][ENG][Hurtom]
Encoded date                : UTC 2018-12-20 09:56:02
Writing application         : v24.0.0 ('Beyond The Pale') 64-bit
Writing library             : libebml v1.3.6 + v1.4.9
Cover                       : Yes
Attachments                 : cover.jpg..jpg

Video
ID                          : 1
Format                      : AVC
Format/Info                 : Advanced Video Codec
Format profile              : [email protected]
Format settings             : CABAC / 4 Ref Frames
Format settings, CABAC      : Yes
Format settings, ReFrames   : 4 frames
Codec ID                    : V_MPEG4/ISO/AVC
Duration                    : 1 h 29 min
Bit rate mode               : Variable
Bit rate                    : 30.0 Mb/s
Maximum bit rate            : 35.0 Mb/s
Width                       : 1 920 pixels
Height                      : 1 080 pixels
Display aspect ratio        : 16:9
Frame rate mode             : Constant
Frame rate                  : 23.976 (24000/1001) FPS
Standard                    : NTSC
Color space                 : YUV
Chroma subsampling          : 4:2:0
Bit depth                   : 8 bits
Scan type                   : Progressive
Bits/(Pixel*Frame)          : 0.603
Stream size                 : 18.7 GiB (93%)
Title                       : The Punisher (1989)Remux 1080p [Hurtom]
Default                     : Yes
Forced                      : No
Color range                 : Limited
Color primaries             : BT.709
Transfer characteristics    : BT.709
Matrix coefficients         : BT.709

Audio #1
ID                          : 2
Format                      : AC-3
Format/Info                 : Audio Coding 3
Codec ID                    : A_AC3
Duration                    : 1 h 29 min
Bit rate mode               : Constant
Bit rate                    : 192 kb/s
Channel(s)                  : 2 channels
Channel positions           : Front: L R
Sampling rate               : 48.0 kHz
Frame rate                  : 31.250 FPS (1536 SPF)
Bit depth                   : 16 bits
Compression mode            : Lossy
Stream size                 : 122 MiB (1%)
Title                       : [UA-DVO-1+1|
Language                    : Ukrainian
Service kind                : Complete Main
Default                     : Yes
Forced                      : Yes

Audio #2
ID                          : 3
Format                      : AC-3
Format/Info                 : Audio Coding 3
Codec ID                    : A_AC3
Duration                    : 1 h 29 min
Bit rate mode               : Constant
Bit rate                    : 192 kb/s
Channel(s)                  : 2 channels
Channel positions           : Front: L R
Sampling rate               : 48.0 kHz
Frame rate                  : 31.250 FPS (1536 SPF)
Bit depth                   : 16 bits
Compression mode            : Lossy
Stream size                 : 122 MiB (1%)
Title                       : [Ukr-Mvo-ICTV]
Language                    : Ukrainian
Service kind                : Complete Main
Default                     : No
Forced                      : No

Audio #3
ID                          : 4
Format                      :
Format/Info                 : Digital Theater Systems
Format profile              : MA / Core
Codec ID                    : A_DTS
Duration                    : 1 h 29 min
Bit rate mode               : Variable / Constant
Bit rate                    : 1 985 kb/s / 768 kb/s
Channel(s)                  : 6 channels
Channel positions           : Front: L C R, Side: L R, LFE
Sampling rate               : 48.0 kHz
Frame rate                  : 93.750 FPS (512 SPF)
Bit depth                   : 16 bits
Compression mode            : Lossless / Lossy
Stream size                 : 1.24 GiB (6%)
Title                       : [Original]
Language                    : English
Default                     : No
Forced                      : No

Text
ID                          : 5
Format                      : PGS
Muxing mode                 : zlib
Codec ID                    : S_HDMV/PGS
Codec ID/Info               : Picture based subtitle format used on BDs/HD-DVDs
Duration                    : 1 h 21 min
Bit rate                    : 17.2 kb/s
Count of elements           : 1912
Stream size                 : 10.1 MiB (0%)
Language                    : English
Default                     : No
Forced                      : No
Скріншоти








Звукозапис з ТБ: karvai0, krigg070
Синхронізація звуку: taraskill1, robotron005
Джерело: &
Особиста оцінка: 8 - мені сподобалося
Каратель / The Punisher (1989) Remux 1080p 2xUkr/Eng | sub Eng


Золотий реліз (завантажене не впливає на рейтинг)
 Трекер:    Зареєстрований   

Завантажити / скачати фільм українською



відео для новачків



 Зареєстрований:   2018-12-20 14:23
 Розмір:   20.15 GB 
 Оцінка фільму:   8.8/10 (Голосів: 16)
   
Інші релізи
   Каратель / The Punisher (1989) 1080p 2xUkr/Eng | sub Eng PatataFrita  2 / 0   10.34 GB   2020-04-23 05:35 
   Каратель / The Punisher (1989) AVC 2xUkr/Eng | sub Eng staf777  1 / 0   2.17 GB   2018-12-24 11:21 
   Каратель / The Punisher (1989) 2xUkr/Eng taraskill1  3 / 0   1.58 GB   2017-07-23 16:02 
OL3X 
VIP


З нами з: 25.11.15
Востаннє: 20.09.20
Повідомлень: 458

2017-01-10 20:03  
Серіал The Punisher від Netflix заплановано на 2017 рік, в головній ролі з Джоном Бернталом Happy
staf777 
Відео Гуртом - підтримка та поширення
Відео Гуртом - підтримка та поширення


З нами з: 16.11.16
Востаннє: 20.09.20
Повідомлень: 4023

2018-12-20 14:22  
Додав доріжку від 
Ваш часовий пояс: GMT + 2 Години

Нова тема   Відповісти