Каратель / The Punisher (1989) Remux 1080p Ukr/Eng | sub Eng

Нові коментарі

Нова тема   Відповісти
Автор Повідомлення
staf777 
Відео Гуртом - підтримка та поширення
Відео Гуртом - підтримка та поширення


З нами з: 16.11.16
Востаннє: 11.09.17
Повідомлень: 522

2017-01-10 19:43  
Каратель / The Punisher (1989) Remux 1080p Ukr/Eng | sub Eng

Каратель / The Punisher (1989) Remux 1080p Ukr/Eng | sub Eng
Оригінальний постер

Каратель / The Punisher (1989) Remux 1080p Ukr/Eng | sub Eng
Жанр: бойовик, кримінальний, драма
Країна: Австралія, США



Кінокомпанія: New World Pictures, Marvel Entertainment

Режисер: Марк Ґолдблатт (Mark Goldblatt)
Актори: Дольф Лундґрен (Dolph Lundgren), Луі Ґоссетт мол. (Louis Gossett Jr.), Джероєн Краббе (Jeroen Krabbe), Кім Міворі (Kim Miyori), Браян Маршалл (Bryan Marshall) та інші.

Сюжет:
Поліцейський Френк Кастл насилу пережив загибель сім'ї, його дружина і дочка згоріли живцем у підірваному автомобілі. Тепер він став суддею і катом 125 гангстерів, яких він розшукав і засудив до смерті. Його неможливо зупинити. Але в нього занадто багато ворогів ...


Тривалість: 01:29:05
Якість: Remux 1080p
Відео:
кодек:
розмір кадру: 1920x1080
бітрейт: 30 Mб/с

Аудіо # 1:
мова: українська
переклад: двоголосий закадровий
кодек: 2.0
бітрейт: 192 кб/с

Аудіо # 2:
мова: англійська
переклад: оригінал
кодек: -HD MA 5.1
бітрейт: 1985 кб/с

Субтитри:
мова: англійська
тип: пререндерні
формат:PGS

Info
General
Unique ID : 239093599710780382048205162140647833131 (0xB3DFC098019FB789B3B8BF72942C3E2B)
Complete name : F:\» HD українською » Фільми в HD\Бойовик\The Punisher (1989) [Ukr,Eng sub.Eng] Remux 1080p [Hurtom].
Format :
Format version : Version 4 / Version 2
File size : 20.0 GiB
Duration : 1h 29mn
Overall bit rate mode : Variable
Overall bit rate : 32.2 Mbps
Movie name : The Punisher (1989) [Ukr,Eng sub.Eng] Remux 1080p [Hurtom]
Encoded date : UTC 2017-01-10 18:00:57
Writing application : mkvmerge v9.5.0 ('Quiet Fire') 64bit
Writing library : libebml v1.3.4 + libmatroska v1.4.5
Attachements : cover.jpg..jpg

Video
ID : 1
Format : AVC
Format/Info : Advanced Video Codec
Format profile : [email protected]
Format settings, CABAC : Yes
Format settings, ReFrames : 4 frames
Codec ID : V_MPEG4/ISO/AVC
Duration : 1h 29mn
Bit rate mode : Variable
Bit rate : 30.0 Mbps
Maximum bit rate : 35.0 Mbps
Width : 1 920 pixels
Height : 1 080 pixels
Display aspect ratio : 16:9
Frame rate mode : Constant
Frame rate : 23.976 (24000/1001) fps
Standard : NTSC
Color space : YUV
Chroma subsampling : 4:2:0
Bit depth : 8 bits
Scan type : Progressive
Bits/(Pixel*Frame) : 0.603
Stream size : 18.7 GiB (93%)
Title : The Punisher (1989)Remux 1080p [Hurtom]
Default : Yes
Forced : No
Color range : Limited
Color primaries : BT.709
Transfer characteristics : BT.709
Matrix coefficients : BT.709

Audio #1
ID : 2
Format : AC-3
Format/Info : Audio Coding 3
Mode extension : CM (complete main)
Format settings, Endianness : Big
Codec ID : A_AC3
Duration : 1h 29mn
Bit rate mode : Constant
Bit rate : 192 Kbps
Channel(s) : 2 channels
Channel positions : Front: L R
Sampling rate : 48.0 KHz
Frame rate : 31.250 fps (1536 spf)
Compression mode : Lossy
Stream size : 122 MiB (1%)
Title : [UA-DVO-1+1|
Language : Ukrainian
Default : Yes
Forced : Yes

Audio #2
ID : 3
Format :
Format/Info : Digital Theater Systems
Format profile : MA / Core
Mode : 16
Format settings, Endianness : Big
Codec ID : A_DTS
Duration : 1h 29mn
Bit rate mode : Variable / Constant
Bit rate : 1 985 Kbps / 768 Kbps
Channel(s) : 6 channels
Channel positions : Front: L C R, Side: L R, LFE
Sampling rate : 48.0 KHz
Frame rate : 93.750 fps (512 spf)
Bit depth : 16 bits
Compression mode : Lossless / Lossy
Stream size : 1.24 GiB (6%)
Title : [Original]
Language : English
Default : No
Forced : No

Text
ID : 4
Format : PGS
Muxing mode : zlib
Codec ID : S_HDMV/PGS
Codec ID/Info : Picture based subtitle format used on BDs/HD-DVDs
Duration : 1h 21mn
Bit rate : 4 425 bps
Count of elements : 1912
Stream size : 2.59 MiB (0%)
Language : English
Default : Yes
Forced : No
Скріншоти









Джерело: &
Особиста оцінка: 8 - мені сподобалося
Каратель / The Punisher (1989) Remux 1080p Ukr/Eng | sub Eng


Золотий реліз (завантажене не впливає на рейтинг)
 Трекер:    Зареєстрований   

Завантажити / скачати фільм українською



відео для новачків



 Зареєстрований:   2017-01-10 21:37
 Розмір:   20.03 GB 
 Оцінка фільму:   10/10 (Голосів: 5)
   
Інші релізи
   Каратель / The Punisher (1989) 2xUkr/Eng taraskill1  6 / 0   1.58 GB   2017-07-23 16:02 
OL3X 
VIP


З нами з: 25.11.15
Востаннє: 19.09.17
Повідомлень: 409

2017-01-10 20:03  
Серіал The Punisher від Netflix заплановано на 2017 рік, в головній ролі з Джоном Бернталом Happy
Ваш часовий пояс: GMT + 2 Години

Нова тема   Відповісти