Гоп / Бунт вухатих / Hop (2011) 720p 2xUkr/Eng | Sub Ukr/Eng

Нові коментарі

Нова тема   Відповісти
Автор Повідомлення
staf777 
Відео Гуртом - підтримка та поширення
Відео Гуртом - підтримка та поширення


З нами з: 16.11.16
Востаннє: 16.03.17
Повідомлень: 523

2017-01-10 14:21  
Гоп / Бунт вухатих / Hop (2011) 720p 2xUkr/Eng | Sub Ukr/Eng

Гоп / Бунт вухатих / Hop (2011) 720p 2xUkr/Eng | Sub Ukr/Eng
Оригінальний постер

Гоп / Бунт вухатих / Hop (2011) 720p 2xUkr/Eng | Sub Ukr/Eng
Жанр: анімація, комедія, сімейний
Країна: США



Кінокомпанія: Universal Pictures, Relativity Media, Illumination Entertainment; мейджор – Universal Pictures International
Режисер: Тім Хілл
Актори: Джеймс Марсден, Кейлі Куоко, Хью Лорі

Сюжет:
Безробітній лобуряка Фред одного разу збиває машиною Великоднього кролика. Поки казковий гризун поправляє здоров'я, герой змушений зайняти його місце, приступивши до роздачі фарбованих яєць дітворі по всьому світу.


Тривалість: 01:35:01
Якість: 720p
Відео:
кодек:
розмір кадру: 1280x694
бітрейт: 5883 кб/с

Аудіо # 1:
мова: українська
переклад: професійний дубльований
кодек: 5.1
бітрейт: 384 кб/с

Аудіо # 2:
мова: українська
переклад: багатоголосий закадровий
кодек: 2.0
бітрейт: 192 кб/с

Аудіо # 3:
мова: англійська
переклад: оригінал
кодек: 5.1
бітрейт: 1509 кб/с

Субтитри (Forced, Full):
мова: українська
тип: програмні (м'які)
формат: *.srt

Субтитри(+SDH):
мова: англійська
тип: програмні (м'які)
формат: *.srt
Info
General
Unique ID : 206188573904509756652529084176561690773 (0x9B1E7990E79799018241D83AC06D5895)
Complete name : E:\HDCLUB\Hop (2011) [Ukr,Eng sub.Ukr,Eng] 720p [Hurtom].
Format :
Format version : Version 4 / Version 2
File size : 5.29 GiB
Duration : 1h 35mn
Overall bit rate : 7 971 Kbps
Movie name : Hop (2011) [Ukr,Eng sub.Ukr,Eng] 720p [Hurtom]
Encoded date : UTC 2017-01-10 12:10:00
Writing application : mkvmerge v9.5.0 ('Quiet Fire') 64bit
Writing library : libebml v1.3.4 + libmatroska v1.4.5
Attachements : cover

Video
ID : 1
Format : AVC
Format/Info : Advanced Video Codec
Format profile : [email protected]
Format settings, CABAC : Yes
Format settings, ReFrames : 9 frames
Codec ID : V_MPEG4/ISO/AVC
Duration : 1h 35mn
Bit rate : 5 883 Kbps
Width : 1 280 pixels
Height : 694 pixels
Display aspect ratio : 1.85:1
Frame rate mode : Constant
Frame rate : 23.976 (24000/1001) fps
Color space : YUV
Chroma subsampling : 4:2:0
Bit depth : 8 bits
Scan type : Progressive
Bits/(Pixel*Frame) : 0.276
Stream size : 3.90 GiB (74%)
Title : Release for Hurtom
Writing library : core 116 r2044 392e762
Encoding settings : cabac=1 / ref=9 / deblock=1:-3:-3 / analyse=0x3:0x133 / me=tesa / subme=10 / psy=1 / psy_rd=1.15:0.00 / mixed_ref=1 / me_range=16 / chroma_me=1 / trellis=2 / 8x8dct=1 / cqm=0 / deadzone=21,11 / fast_pskip=0 / chroma_qp_offset=-2 / threads=18 / sliced_threads=0 / nr=0 / decimate=0 / interlaced=0 / bluray_compat=0 / constrained_intra=0 / bframes=9 / b_pyramid=2 / b_adapt=1 / b_bias=0 / direct=3 / weightb=1 / open_gop=0 / weightp=2 / keyint=250 / keyint_min=23 / scenecut=40 / intra_refresh=0 / rc=2pass / mbtree=0 / bitrate=5883 / ratetol=1.0 / qcomp=0.60 / qpmin=0 / qpmax=69 / qpstep=4 / cplxblur=20.0 / qblur=0.5 / ip_ratio=1.40 / pb_ratio=1.30 / aq=2:0.60
Language : English
Default : No
Forced : No

Audio #1
ID : 2
Format : AC-3
Format/Info : Audio Coding 3
Mode extension : CM (complete main)
Format settings, Endianness : Big
Codec ID : A_AC3
Duration : 1h 35mn
Bit rate mode : Constant
Bit rate : 384 Kbps
Channel(s) : 6 channels
Channel positions : Front: L C R, Side: L R, LFE
Sampling rate : 48.0 KHz
Frame rate : 31.250 fps (1536 spf)
Compression mode : Lossy
Stream size : 261 MiB (5%)
Title : 5.1 @ 384 kbps - R5
Language : Ukrainian
Default : Yes
Forced : Yes

Audio #2
ID : 3
Format : AC-3
Format/Info : Audio Coding 3
Mode extension : CM (complete main)
Format settings, Endianness : Big
Codec ID : A_AC3
Duration : 1h 35mn
Bit rate mode : Constant
Bit rate : 192 Kbps
Channel(s) : 2 channels
Channel positions : Front: L R
Sampling rate : 48.0 KHz
Frame rate : 31.250 fps (1536 spf)
Compression mode : Lossy
Stream size : 130 MiB (2%)
Title : 2.0 @ 192 kbps - НЛО.TV
Language : Ukrainian
Default : No
Forced : Yes

Audio #3
ID : 4
Format :
Format/Info : Digital Theater Systems
Mode : 16
Format settings, Endianness : Big
Codec ID : A_DTS
Duration : 1h 35mn
Bit rate mode : Constant
Bit rate : 1 509 Kbps
Channel(s) : 6 channels
Channel positions : Front: L C R, Side: L R, LFE
Sampling rate : 48.0 KHz
Frame rate : 93.750 fps (512 spf)
Bit depth : 24 bits
Compression mode : Lossy
Delay relative to video : 22ms
Stream size : 1.00 GiB (19%)
Title : 5.1 @ 1536 kbps
Language : English
Default : No
Forced : No

Text #1
ID : 5
Format : UTF-8
Codec ID : S_TEXT/UTF8
Codec ID/Info : UTF-8 Plain Text
Duration : 1h 33mn
Bit rate : 0 bps
Count of elements : 12
Stream size : 596 Bytes (0%)
Title : Forced
Language : Ukrainian
Default : Yes
Forced : Yes

Text #2
ID : 6
Format : UTF-8
Codec ID : S_TEXT/UTF8
Codec ID/Info : UTF-8 Plain Text
Duration : 1h 33mn
Bit rate : 110 bps
Count of elements : 1397
Stream size : 76.0 KiB (0%)
Title : Full
Language : Ukrainian
Default : No
Forced : No

Text #3
ID : 7
Format : UTF-8
Codec ID : S_TEXT/UTF8
Codec ID/Info : UTF-8 Plain Text
Duration : 1h 34mn
Bit rate : 64 bps
Count of elements : 1461
Stream size : 44.4 KiB (0%)
Language : English
Default : No
Forced : No

Text #4
ID : 8
Format : UTF-8
Codec ID : S_TEXT/UTF8
Codec ID/Info : UTF-8 Plain Text
Duration : 1h 34mn
Bit rate : 68 bps
Count of elements : 1593
Stream size : 47.7 KiB (0%)
Title : SDH
Language : English
Default : No
Forced : No

Menu
00:00:00.000 : en:00:00:00.000
00:05:30.872 : en:00:05:30.872
00:07:43.088 : en:00:07:43.088
00:09:46.753 : en:00:09:46.753
00:15:24.382 : en:00:15:24.382
00:20:11.460 : en:00:20:11.460
00:25:54.094 : en:00:25:54.094
00:28:50.395 : en:00:28:50.395
00:32:12.764 : en:00:32:12.764
00:36:22.013 : en:00:36:22.013
00:43:18.513 : en:00:43:18.513
00:47:45.613 : en:00:47:45.613
00:52:00.909 : en:00:52:00.909
00:58:12.114 : en:00:58:12.114
01:06:03.668 : en:01:06:03.668
01:11:19.442 : en:01:11:19.442
01:17:11.752 : en:01:17:11.752
01:22:47.504 : en:01:22:47.504
01:26:55.544 : en:01:26:55.544
01:29:40.542 : en:01:29:40.542
Скріншоти





Джерело: &
Особиста оцінка: 0 - не дивився
Гоп / Бунт вухатих / Hop (2011) 720p 2xUkr/Eng | Sub Ukr/Eng


 Трекер:    Зареєстрований   

Завантажити / скачати фільм українською



відео для новачків



 Зареєстрований:   2017-01-10 15:32
 Розмір:   5.29 GB 
 Оцінка фільму:   10/10 (Голосів: 2)
   
Інші релізи
   Гоп / Бунт вухатих / Hop (2011) 1080p 2xUkr/Eng | Sub Ukr/Eng 11FrYkT  3 / 0   12.87 GB   2017-01-09 11:09 
   Гоп / Бунт вухатих / Hop (2011) 2xUkr/Eng Arsenfpu  10 / 0   1.85 GB   2015-12-10 18:49 
Ваш часовий пояс: GMT + 2 Години

Нова тема   Відповісти