Літачки: Рятувальний загін / Planes: Fire and Rescue (2014) Remux 1080p Ukr/Eng | Sub Eng

Нові коментарі

Нова тема   Відповісти
Автор Повідомлення
staf777 
Відео Гуртом - підтримка та поширення
Відео Гуртом - підтримка та поширення


З нами з: 16.11.16
Востаннє: 16.03.17
Повідомлень: 523

2017-01-09 21:22  
Літачки: Рятувальний загін / Planes: Fire and Rescue (2014) Remux 1080p Ukr/Eng | Sub Eng
Літачки: Рятувальний загін / Planes: Fire and Rescue (2014) Remux 1080p Ukr/Eng | Sub Eng
«Вони летять туди, звідки всі тікають»

Оригінальний постер

Літачки: Рятувальний загін / Planes: Fire and Rescue (2014) Remux 1080p Ukr/Eng | Sub Eng

Жанр: пригодницький, комедія, сімейний
Країна: США



Кінокомпанія: DisneyToon Studios, Prana Studios
Режисер: Роберт Ганнавей
Актори: Дейн Кук, Джулі Боуен, Дерек Бланкеншіп, Денні Пардо

Сюжет:
Літачок Дасті - який став вже легендою повітряних гонок незабаром дізнається, що його двигун сильно пошкоджений, і він ніколи не може більше брати участь в швидкісних повітряних гонках. Дасті шукає собі нове заняття і знайомиться з мужньою пожежно-рятувальною командою, якою керує ветеран авіації вертоліт по імені Ренждер. Дізнавшись наскільки важка і небезпечна робота пожежної авіації Дасті розуміє, що таке справжній героїзм і самовіддача і сам захоче стати рятувальником.


Тривалість: 01:13:56
Якість: Remux 1080p
Відео:
кодек:
розмір кадру: 1920x1080
бітрейт: 30553 кб/с
примітка: присутній один напис російською
Аудіо # 1:
мова: українська
переклад: професійний дубльований | студія Le Doyen
кодек: -HD MA 5.1
бітрейт: 3684 кб/с
Інформація про озвучення


Дубльований українською мовою студією Le Doyen на замовлення «Disney Character Voices International» у 2014 році. Автор українського перекладу — Сергій Ковальчук.
Ролі озвучували:
В'ячеслав Ніколенко - Пилюк, Олег Прімогенов - Шкіпер (Капітан), Оксана Поліщук - Крапочка, Віктор Данилюк - Чахлик, Дмитро Завадський - Спалах та інші.
Аудіо # 2:
мова: англійська
переклад: оригінал
кодек: 5.1
бітрейт: 1509 кб/с

Аудіо # 3:
мова: англійська
переклад: описова
кодек: 2.0
бітрейт: 320 кб/с

Субтитри:
мова: англійська
тип: пререндерні
формат: PGS
Info
Код:
Загальна інформація
General
Unique ID                      : 250456375165475568929468455228192757943 (0xBC6C24AD4D74FD3BBA15C043B57E98B7)
Complete name                  : E:\HDCLUB\PLANES_FIRE_AND_RESCUE_2014_REMUX_HDCLUB\BDMV\STREAM\Planes Fire and Rescue (2014)[Ukr,Eng sub.Eng] Remux 1080p [Hurtom].
Format                         :
Format version                 : Version 4 / Version 2
File size                      : 20.8 GiB
Duration                       : 1h 23mn
Overall bit rate mode          : Variable
Overall bit rate               : 35.4 Mbps
Movie name                     : Planes: Fire and Rescue (2014)[Ukr,Eng sub.Eng] Remux 1080p [Hurtom]
Encoded date                   : UTC 2017-01-10 20:28:00
Writing application            : mkvmerge v9.5.0 ('Quiet Fire') 64bit
Writing library                : libebml v1.3.4 + libmatroska v1.4.5
Attachements                   : cover.jpg..jpg

Video
ID                             : 1
Format                         : AVC
Format/Info                    : Advanced Video Codec
Format profile                 : [email protected]
Format settings, CABAC         : Yes
Format settings, ReFrames      : 4 frames
Codec ID                       : V_MPEG4/ISO/AVC
Duration                       : 1h 23mn
Bit rate mode                  : Variable
Bit rate                       : 30.0 Mbps
Maximum bit rate               : 34.5 Mbps
Width                          : 1 920 pixels
Height                         : 1 080 pixels
Display aspect ratio           : 16:9
Frame rate mode                : Constant
Frame rate                     : 23.976 (24000/1001) fps
Color space                    : YUV
Chroma subsampling             : 4:2:0
Bit depth                      : 8 bits
Scan type                      : Progressive
Bits/(Pixel*Frame)             : 0.604
Stream size                    : 17.5 GiB (84%)
Title                          : Planes: Fire and Rescue (2014) Remux 1080p [Hurtom]
Default                        : Yes
Forced                         : No

Audio #1
ID                             : 2
Format                         :
Format/Info                    : Digital Theater Systems
Format profile                 : MA / Core
Mode                           : 16
Format settings, Endianness    : Big
Codec ID                       : A_DTS
Duration                       : 1h 23mn
Bit rate mode                  : Variable / Constant
Bit rate                       : 3 683 Kbps / 1 509 Kbps
Channel(s)                     : 6 channels
Channel positions              : Front: L C R, Side: L R, LFE
Sampling rate                  : 48.0 KHz
Frame rate                     : 93.750 fps (512 spf)
Bit depth                      : 24 bits
Compression mode               : Lossless / Lossy
Delay relative to video        : 21ms
Stream size                    : 2.16 GiB (10%)
Title                          : Ukrainian: 48 kHz/24-bit, -HD MA 5.1, ~3684.00 kbps avg
Language                       : Ukrainian
Default                        : Yes
Forced                         : Yes

Audio #2
ID                             : 3
Format                         :
Format/Info                    : Digital Theater Systems
Mode                           : 16
Format settings, Endianness    : Big
Codec ID                       : A_DTS
Duration                       : 1h 23mn
Bit rate mode                  : Constant
Bit rate                       : 1 509 Kbps
Channel(s)                     : 6 channels
Channel positions              : Front: L C R, Side: L R, LFE
Sampling rate                  : 48.0 KHz
Frame rate                     : 93.750 fps (512 spf)
Bit depth                      : 24 bits
Compression mode               : Lossy
Stream size                    : 903 MiB (4%)
Title                          : [Original]
Language                       : English
Default                        : No
Forced                         : No

Audio #3
ID                             : 4
Format                         : AC-3
Format/Info                    : Audio Coding 3
Format profile                 : Dolby Digital
Mode extension                 : CM (complete main)
Format settings, Endianness    : Big
Codec ID                       : A_AC3
Duration                       : 1h 23mn
Bit rate mode                  : Constant
Bit rate                       : 320 Kbps
Channel(s)                     : 2 channels
Channel positions              : Front: L R
Sampling rate                  : 48.0 KHz
Frame rate                     : 31.250 fps (1536 spf)
Compression mode               : Lossy
Stream size                    : 191 MiB (1%)
Title                          : English: 48 kHz, , 2/0 (L,R) ch, ~320.00 kbps avg |Descriptive|
Language                       : English
Default                        : No
Forced                         : No

Text
ID                             : 5
Format                         : PGS
Muxing mode                    : zlib
Codec ID                       : S_HDMV/PGS
Codec ID/Info                  : Picture based subtitle format used on BDs/HD-DVDs
Duration                       : 1h 23mn
Bit rate                       : 14.9 Kbps
Count of elements              : 2982
Stream size                    : 8.89 MiB (0%)
Language                       : English
Default                        : Yes
Forced                         : No
Скріншоти






Джерело: &


Літачки: Рятувальний загін / Planes: Fire and Rescue (2014) Remux 1080p Ukr/Eng | Sub Eng


Золотий реліз (завантажене не впливає на рейтинг)
 Трекер:    Зареєстрований   

Завантажити / скачати мультфільм українською



відео для новачків



 Зареєстрований:   2017-01-11 08:03
 Розмір:   20.78 GB 
 Оцінка мультфільму:   7/10 (Голосів: 6)
   
Ваш часовий пояс: GMT + 2 Години

Нова тема   Відповісти