Дияволиця / Devilman Lady (1998) (серії 26 з 26) 480р Jpn | sub Ukr

Нові коментарі

Нова тема   Відповісти
Автор Повідомлення
ihabi 
Поважний учасник


З нами з: 01.03.13
Востаннє: 07.08.17
Повідомлень: 247

2017-01-09 16:47  
Дияволиця / Devilman Lady (1998) (серії 26 з 26) 480р Jpn | sub Ukr

Дияволиця / Devilman Lady (1998) (серії 26 з 26) 480р Jpn | sub Ukr


Жанр: пригоди, драма, жахи, містика
Країна: Японія



Кінокомпанія: TMS
Режисер: Хірано Тошікі
Актори: Такор Фуджі, Ловел Бартоломей, Ерік Еббот, Бріт Бейкер, Мег Бауман

Сюжет:
Фудо Джюн - приваблива фотомодель з багатообіцяючим майбутнім. Але в ній схована нестримна демонічна сила. Одного вечора Джюн зустрічає Аску Лан, яка керує спецпідрозділом, що відловлює та винищує Звірів - людей, що перетворилися на дияволів. Джюн повинна знайти сили, щоб протистояти як Звірам, так і людям, які не набагато кращі за них.


Тривалість: 00:24:05
Якість:
Відео:
кодек: VC-1
розмір кадру: 640 х 480
бітрейт: 1 087 кб/с

Аудіо:
мова: японська
переклад: оригінал
кодек: WMA 2.0
бітрейт: 297 кб/с

Субтитри:
мова: українська
тип: пререндерні
формат: *.ass

Переклад виконано:
Переклад: Kallaider
Редакція: May
Постер: Пан Олександр

Джерело: MelodicVoiceStudio
Info
Video
ID : 1
Format : VC-1
Codec ID : V_MS/VFW/FOURCC / WMV3
Codec ID/Info : Windows Media Video 9
Codec ID/Hint : WMV3
Duration : 24 min 6 s
Bit rate : 1 087 kb/s
Width : 640 pixels
Height : 480 pixels
Display aspect ratio : 4:3
Frame rate mode : Constant
Frame rate : 23.976 (24000/1001) FPS
Bit depth : 8 bits
Compression mode : Lossy
Bits/(Pixel*Frame) : 0.148
Stream size : 187 MiB (78%)
Language : Japanese
Default : Yes
Forced : No

Audio
ID : 2
Format : WMA
Format version : Version 2
Codec ID : A_MS/ACM / 161
Codec ID/Info : Windows Media Audio
Duration : 24 min 5 s
Bit rate : 297 kb/s
Channel(s) : 2 channels
Sampling rate : 48.0 kHz
Frame rate : 4.539 FPS (10575 spf)
Bit depth : 16 bits
Stream size : 51.3 MiB (21%)
Title : Jpn
Language : Japanese
Default : Yes
Forced : No

Text
ID : 3
Format : ASS
Codec ID : S_TEXT/ASS
Codec ID/Info : Advanced Sub Station Alpha
Duration : 24 min 6 s
Bit rate : 128 b/s
Count of elements : 189
Compression mode : Lossless
Stream size : 22.7 KiB (0%)
Title : Kallaider
Language : Ukrainian
Default : Yes
Forced : Yes
Скріншоти





Змінена назва файлів та виправлені помилки


Особиста оцінка: 7 - моїй подрузі сподобалося


Золотий реліз (завантажене не впливає на рейтинг)
 Трекер:    Зареєстрований   

Завантажити / скачати аніме українською



відео для новачків



 Зареєстрований:   2017-03-16 19:45
 Розмір:   6.63 GB 
 Оцінка аніме:   8.7/10 (Голосів: 3)
   
11FrYkT 
Модератор відео


З нами з: 20.02.11
Востаннє: 19.08.17
Повідомлень: 3807

2017-01-09 21:29  
ihabi , вкажіть десь джерело сабів
ihabi 
Поважний учасник


З нами з: 01.03.13
Востаннє: 07.08.17
Повідомлень: 247

2017-03-16 19:47  

Змінена назва файлів та виправлені помилки

Jani307 
Свій


З нами з: 09.06.14
Востаннє: 18.08.17
Повідомлень: 68

2017-03-16 22:31  
Розкажіть, будь ласка, щось про фільм - на що схоже?
EvGaS 
Відео Гуртом - підтримка та поширення
Відео Гуртом - підтримка та поширення


З нами з: 27.02.12
Востаннє: 19.08.17
Повідомлень: 3332

2017-03-17 08:21  
Jani307 написано:
Розкажіть, будь ласка, щось про фільм - на що схоже?

Ну як, сатанинщина, монстри і драма. Багато драми. Як на 1998 рік, то вельми годяща історія. Хоча й у VGA дивитись його візуальної насолоди немає, але в історії є щось цікаве й непогане, хоча й логіка «поганих» тут шкутильгає на обидві, навіть безглуздіше за традиції бойовиків 80-90-их.
Не скажу, що був в захваті, але й відвертої байдужості чи бажання закидати перегляд не викликало. Не сіре й не супер - просто добре. В гарному сенсі. Та й кінцівка вельми оригінальна наче, навіть як й насьогодні.




Витримує конкуренцію з сучасністю, але тут все ж краще було б дивитись в нормальній якості всі жахастики, бо на картинку тут все ж теж жанровий акцент, перетворення всілякі, переляки, ну й як мегамонстри чубляться.

Ваш часовий пояс: GMT + 2 Години

Нова тема   Відповісти