Снупі та Чарлі Браун: Дрібнота у кіно / The Peanuts Movie (2015) Remux 1080p Ukr/Eng | Sub Ukr/Eng

Нові коментарі

Нова тема   Відповісти
Останній раз роздавалося staf777 (2017-08-16)
Автор Повідомлення
staf777 
Відео Гуртом - підтримка та поширення
Відео Гуртом - підтримка та поширення


З нами з: 16.11.16
Востаннє: 16.08.17
Повідомлень: 522

2017-01-08 23:44  
Снупі та Чарлі Браун: Дрібнота у кіно / The Peanuts Movie (2015) Remux 1080p Ukr/Eng | Sub Ukr/Eng


Снупі та Чарлі Браун: Дрібнота у кіно / The Peanuts Movie (2015) Remux 1080p Ukr/Eng | Sub Ukr/Eng

«Світло. Камера. Нишпорка»


Оригінальний постер

Снупі та Чарлі Браун: Дрібнота у кіно / The Peanuts Movie (2015) Remux 1080p Ukr/Eng | Sub Ukr/Eng
Жанр: Комедія, Мультфільм, Сімейний, Пригодницький
Країна: США



Кінокомпанія: 20th Century Fox Animation, Blue Sky Studios, Feigco Entertainment
Режисер: Стів Мартіно
Ролі озвучують: Тромбон Шорти, Ребекка Блум, Анастасія Бредихина, Франческа Капальді, Крістін Ченоует, Олександр Гарфін, Ной Джонстон, Білл Мелендес, Хедлі Белль Міллер

Сюжет:
Чарлі Браун, Снупі, Люсі, Лінус і інші улюблені персонажі коміксів «Дрібна торгівля» вперше з'являться на великому екрані в повнометражному анімаційному фільмі, знятому з використанням останніх досягнень 3D-анімації. Снупі - найсимпатичніший пес у світі - до того ж, класний пілот - відправляється в неймовірні повітряні пригоди в гонитві за головним лиходієм Червоним Бароном. У цей час у його приятеля Чарлі Брауна починаються воістину епічні пригоди!


Тривалість: 01:28:06
Якість: Remux 1080

Відео:
кодек:
розмір кадру: 1920x1080
бітрейт: 30.4 Mб/с

Аудіо #1:
мова: українська
переклад: професійний дубльований
кодек: 5.1
бітрейт: 448 кб/с

Аудіо #2:
мова: англійська
переклад: оригінал
кодек: -HD MA 7.1
бітрейт: 4887 кб/с

Субтитри:
мова: українська
тип: пререндерні
формат: PGS

Субтитри:
мова: англійська
тип: пререндерні
формат: PGS
Скріншоти



Info
Код:
Загальна інформація
General
Unique ID                      : 214374434078680323663360668757057302055 (0xA14703A1FA0F70ECA0357F2019D76E27)
Complete name                  : E:\HDCLUB\THE_PEANUTS_MOVIE_REMUX_HDCLUB\BDMV\STREAM\The Peanuts Movie (2015) [Ukr,Eng sub.Ukr,Eng] Remux 1080p [Hurtom].
Format                         :
Format version                 : Version 4 / Version 2
File size                      : 22.0 GiB
Duration                       : 1h 28mn
Overall bit rate mode          : Variable
Overall bit rate               : 35.8 Mbps
Movie name                     : The Peanuts Movie (2015) [Ukr,Eng sub.Ukr,Eng] Remux 1080p [Hurtom]
Encoded date                   : UTC 2017-01-08 20:57:27
Writing application            : mkvmerge v9.5.0 ('Quiet Fire') 64bit
Writing library                : libebml v1.3.4 + libmatroska v1.4.5
Attachements                   : cover.jpg..jpg

Video
ID                             : 1
Format                         : AVC
Format/Info                    : Advanced Video Codec
Format profile                 : High@L4.1
Format settings, CABAC         : Yes
Format settings, ReFrames      : 4 frames
Codec ID                       : V_MPEG4/ISO/AVC
Duration                       : 1h 28mn
Bit rate mode                  : Variable
Bit rate                       : 30.4 Mbps
Maximum bit rate               : 33.0 Mbps
Width                          : 1 920 pixels
Height                         : 1 080 pixels
Display aspect ratio           : 16:9
Frame rate mode                : Constant
Frame rate                     : 23.976 (24000/1001) fps
Color space                    : YUV
Chroma subsampling             : 4:2:0
Bit depth                      : 8 bits
Scan type                      : Progressive
Bits/(Pixel*Frame)             : 0.612
Stream size                    : 18.7 GiB (85%)
Title                          : The Peanuts Movie (2015) Remux 1080p
Default                        : Yes
Forced                         : No

Audio #1
ID                             : 2
Format                         : AC-3
Format/Info                    : Audio Coding 3
Mode extension                 : CM (complete main)
Format settings, Endianness    : Big
Codec ID                       : A_AC3
Duration                       : 1h 28mn
Bit rate mode                  : Constant
Bit rate                       : 448 Kbps
Channel(s)                     : 6 channels
Channel positions              : Front: L C R, Side: L R, LFE
Sampling rate                  : 48.0 KHz
Frame rate                     : 31.250 fps (1536 spf)
Compression mode               : Lossy
Stream size                    : 282 MiB (1%)
Title                          : 5.1 @ 448 kbps
Language                       : Ukrainian
Default                        : Yes
Forced                         : Yes

Audio #2
ID                             : 3
Format                         :
Format/Info                    : Digital Theater Systems
Format profile                 : MA / ES Matrix / Core
Mode                           : 16
Format settings, Endianness    : Big
Codec ID                       : A_DTS
Duration                       : 1h 28mn
Bit rate mode                  : Variable / Constant / Constant
Bit rate                       : 4 887 Kbps / 1 509 Kbps / 1 509 Kbps
Channel(s)                     : 8 channels / 7 channels / 6 channels
Channel positions              : Front: L C R, Side: L R, Back: L R, LFE / Front: L C R, Side: L R, Back: C, LFE / Front: L C R, Side: L R, LFE
Sampling rate                  : 48.0 KHz
Frame rate                     : 93.750 fps (512 spf)
Bit depth                      : 24 bits
Compression mode               : Lossless / Lossy / Lossy
Stream size                    : 3.01 GiB (14%)
Title                          : Original
Language                       : English
Default                        : No
Forced                         : No

Text #1
ID                             : 4
Format                         : PGS
Muxing mode                    : zlib
Codec ID                       : S_HDMV/PGS
Codec ID/Info                  : Picture based subtitle format used on BDs/HD-DVDs
Duration                       : 1h 26mn
Bit rate                       : 17.3 Kbps
Count of elements              : 1654
Stream size                    : 10.7 MiB (0%)
Language                       : Ukrainian
Default                        : Yes
Forced                         : No

Text #2
ID                             : 5
Format                         : PGS
Muxing mode                    : zlib
Codec ID                       : S_HDMV/PGS
Codec ID/Info                  : Picture based subtitle format used on BDs/HD-DVDs
Duration                       : 1h 27mn
Bit rate                       : 13.1 Kbps
Count of elements              : 2774
Stream size                    : 8.17 MiB (0%)
Language                       : English
Default                        : No
Forced                         : No

Джерело: &
Особиста оцінка: 0 - не дивився


Золотий реліз (завантажене не впливає на рейтинг)
 Трекер:    Зареєстрований   

Завантажити / скачати мультфільм українською



відео для новачків



 Зареєстрований:   2017-01-09 00:40
 Розмір:   22.04 GB 
 Оцінка мультфільму:   10/10 (Голосів: 4)
   
Ваш часовий пояс: GMT + 2 Години

Нова тема   Відповісти