Дюймовочка / Thumbelina (1994) Remux 1080p Ukr/Eng | Sub Eng

Нові коментарі

Нова тема   Відповісти
Автор Повідомлення
staf777 
Відео Гуртом - підтримка та поширення
Відео Гуртом - підтримка та поширення


З нами з: 16.11.16
Востаннє: 16.08.17
Повідомлень: 522

2017-01-08 23:11  
Дюймовочка / Thumbelina (1994) Remux 1080p Ukr/Eng | Sub Eng

Дюймовочка / Thumbelina (1994) Remux 1080p Ukr/Eng | Sub Eng
Оригінальний постер

Дюймовочка / Thumbelina (1994) Remux 1080p Ukr/Eng | Sub Eng
Жанр: анімація, сімейний, фентезі
Країна: Ірландія, США



Кінокомпанія: Don Bluth
Режисер: Дон Блат, Ґері Ґолдмен
Актори: Джоді Бенсон, Джіно Конфорті, Барбара Кук, Вілл Раян, Джун Форей, Кеннет Марс, Ґері Імхофф, Джо Лінч, Чаро, Данні Манн, Лорен Лестер, Кендалл Каннінгем, Тауні Саншайн Ґловер, Майкл Нуньєс, Ґілберт Ґоттфрід, Пет Музік, Ніл Росс, Керол Ченнінґ, Джон Герт, Т

Сюжет:
Маленька Дюймовочка — хоробра дівчинка, що не боїться випробувань і небезпечних пригод, які можуть трапитися з нею у великому світі. Дюймовочка постійно потрапляє як не у вогонь, так у полум’я. Після багатьох халеп, загублена і одна-одненька вона стає здобиччю миші Мони, яка обіцяє їй житло і поживу на зиму, якщо вона вийде заміж за її сусіда - містера Крота. Але Дюймовочка не хоче цього робити…
Чарівна історія Ганса Христіана Андерсена "Дюймовочка" у версії відомого мультиплікатора Дона Блата і композитора, лауреата премії "Еммі", Баррі Манілоу, яка нагадає вам, що якщо ми будемо дослухатися до свого серця, то все стане можливим.


Тривалість: 01:26:31
Якість: Remux 1080p
Відео:
кодек:
розмір кадру: 1920x1080
бітрейт: 28942 кб/с

Аудіо # 1:
мова: українська
переклад: багатоголосий закадровий
кодек: 2.0
бітрейт: 192 кб/с

Аудіо# 2:
мова: англійська
переклад: оригінал
кодек: -HD MA 5.1
бітрейт: 3840 кб/с

Аудіо # 3:
мова: англійська
переклад: оригінал
кодек: 2.0
бітрейт: 224 кб/с

Субтитри:
мова: англійська
тип: пререндерні
формат: PGS
Info
General
Unique ID : 200752937914261696807413850484384924282 (0x97079C0542DAECA39EB9F51A4C1F027A)
Complete name : E:\HDCLUB\Thumbelina_1994_BD-REMUX_HDCLUB\BDMV\STREAM\Thumbelina (1994) [Ukr,Eng sub.Eng] Remux 1080p [Hurtom].
Format :
Format version : Version 4 / Version 2
File size : 20.0 GiB
Duration : 1h 26mn
Overall bit rate mode : Variable
Overall bit rate : 33.2 Mbps
Movie name : Thumbelina (1994) [Ukr,Eng sub.Eng] Remux 1080p [Hurtom]
Encoded date : UTC 2017-01-08 18:10:26
Writing application : mkvmerge v9.5.0 ('Quiet Fire') 64bit
Writing library : libebml v1.3.4 + libmatroska v1.4.5
Attachements : cover.jpg..jpg

Video
ID : 1
Format : AVC
Format/Info : Advanced Video Codec
Format profile : High@L4.1
Format settings, CABAC : Yes
Format settings, ReFrames : 2 frames
Codec ID : V_MPEG4/ISO/AVC
Duration : 1h 26mn
Bit rate mode : Variable
Bit rate : 28.9 Mbps
Width : 1 920 pixels
Height : 1 080 pixels
Display aspect ratio : 16:9
Frame rate mode : Constant
Frame rate : 23.976 (24000/1001) fps
Color space : YUV
Chroma subsampling : 4:2:0
Bit depth : 8 bits
Scan type : Progressive
Bits/(Pixel*Frame) : 0.582
Stream size : 17.5 GiB (87%)
Title : Thumbelina (1994) Remux 1080p
Default : Yes
Forced : No

Audio #1
ID : 2
Format : AC-3
Format/Info : Audio Coding 3
Mode extension : CM (complete main)
Format settings, Endianness : Big
Codec ID : A_AC3
Duration : 1h 26mn
Bit rate mode : Constant
Bit rate : 192 Kbps
Channel(s) : 2 channels
Channel positions : Front: L R
Sampling rate : 48.0 KHz
Frame rate : 31.250 fps (1536 spf)
Compression mode : Lossy
Stream size : 119 MiB (1%)
Title : UA-MVO-1+1
Language : Ukrainian
Default : Yes
Forced : Yes

Audio #2
ID : 3
Format :
Format/Info : Digital Theater Systems
Format profile : MA / Core
Mode : 16
Format settings, Endianness : Big
Codec ID : A_DTS
Duration : 1h 26mn
Bit rate mode : Variable / Constant
Bit rate : 3 840 Kbps / 1 509 Kbps
Channel(s) : 6 channels
Channel positions : Front: L C R, Side: L R, LFE
Sampling rate : 48.0 KHz
Frame rate : 93.750 fps (512 spf)
Bit depth : 24 bits
Compression mode : Lossless / Lossy
Stream size : 2.28 GiB (11%)
Title : Original
Language : English
Default : No
Forced : No

Audio #3
ID : 4
Format : AC-3
Format/Info : Audio Coding 3
Format profile : Dolby Digital
Mode extension : CM (complete main)
Format settings, Endianness : Big
Codec ID : A_AC3
Duration : 1h 26mn
Bit rate mode : Constant
Bit rate : 224 Kbps
Channel(s) : 2 channels
Channel positions : Front: L R
Sampling rate : 48.0 KHz
Frame rate : 31.250 fps (1536 spf)
Compression mode : Lossy
Stream size : 139 MiB (1%)
Language : English
Default : No
Forced : No

Text
ID : 5
Format : PGS
Muxing mode : zlib
Codec ID : S_HDMV/PGS
Codec ID/Info : Picture based subtitle format used on BDs/HD-DVDs
Duration : 1h 25mn
Bit rate : 14.5 Kbps
Count of elements : 2295
Stream size : 8.88 MiB (0%)
Language : English
Default : Yes
Forced : No
Скріншоти


Джерело: &
Особиста оцінка: 8 - мені сподобалося
Дюймовочка / Thumbelina (1994) Remux 1080p Ukr/Eng | Sub Eng


Золотий реліз (завантажене не впливає на рейтинг)
 Трекер:    Зареєстрований   

Завантажити / скачати мультфільм українською



відео для новачків



 Зареєстрований:   2017-01-08 23:11
 Розмір:   20.04 GB 
 Оцінка мультфільму:   10/10 (Голосів: 2)
   
Інші релізи
   Дюймовочка / Thumbelina (1994) Ukr / Eng | sub Eng yuranako  6 / 0   1.45 GB   2013-07-15 20:32 
   Дюймовочка / Thumbelina (1994) 1080p Ukr/Eng | Sub Eng igor911  5 / 0   4.35 GB   2013-01-30 13:36 
   Дюймовочка / Thumbelina (1994) DVD5 Ukr/Eng Merdiff  0 / 0   3.49 GB   2009-10-29 23:56 
Ваш часовий пояс: GMT + 2 Години

Нова тема   Відповісти