Красуня у рожевому / Pretty in pink (1986) 480p Eng | sub Ukr

Нові коментарі

Нова тема   Відповісти
Автор Повідомлення
besconst 
Новенький


З нами з: 10.03.12
Востаннє: 25.05.17
Повідомлень: 15

2017-01-08 23:02  
Красуня у рожевому / Pretty in pink (1986) 480p Eng | sub Ukr

Красуня у рожевому / Pretty in pink (1986) 480p Eng | sub Ukr


Жанр: мелодрама
Країна: США



Кінокомпанія: Paramount Pictures
Режисер: Говард Дойч / Howard Deutch
Актори: Моллі Рінґуолд / Molly Ringwald, Гаррі Дін Стентон / Harry Dean Stanton, Джон Краєр / Jon Cryer, Енні Поттс / Annie Potts, Джеймс Спейдер / James Spader, Ендрю Маккарті / Andrew McCarthy та інші.

Сюжет:
Фільм за сценарієм легендарного Джона Г'юза. Історія кохання хлопця із забезпеченої сім'ї та дівчини з бідного району. Вони хочуть бути разом і готуються стати парою на шкільному випускному вечорі. Але реальність протистоїть їх любові...


Тривалість: 01:36:43
Якість:
Відео:
кодек:
розмір кадру: 856 х 480
бітрейт: 1 535 кб/с

Аудіо:
мова: англійська
переклад: оригінал
кодек: 2.0
бітрейт: 126 кб/с

Субтитри:
мова: українська
тип: вбудовані (жорсткі)
формат: *.srt
переклад: з англійської Костянтин Безсонов
Медіаінфо

General
Complete name : D:\Movies\Pretty.In.Pink.1986.mp4
Format : MPEG-4
Format profile : Base Media / Version 2
Codec ID : mp42 (isom/mp42/3gp5)
File size : 1.12 GiB
Duration : 1 h 36 min
Overall bit rate mode : Variable
Overall bit rate : 1 664 kb/s
Encoded date : UTC 2017-01-08 19:27:38
Tagged date : UTC 2017-01-08 19:27:38
Writing application : FormatFactory : www.pcfreetime.com

Video
ID : 201
Format : MPEG-4 Visual
Format profile : [email protected]
Format settings, BVOP : No
Format settings, QPel : No
Format settings, GMC : No warppoints
Format settings, Matrix : Default (H.263)
Codec ID : 20
Duration : 1 h 36 min
Bit rate mode : Variable
Bit rate : 1 535 kb/s
Maximum bit rate : 4 092 kb/s
Width : 856 pixels
Height : 480 pixels
Display aspect ratio : 16:9
Frame rate mode : Constant
Frame rate : 23.976 (24000/1001) FPS
Color space : YUV
Chroma subsampling : 4:2:0
Bit depth : 8 bits
Scan type : Progressive
Compression mode : Lossy
Bits/(Pixel*Frame) : 0.156
Stream size : 1.04 GiB (92%)
Writing library : Lavc53.8.0
Encoded date : UTC 2017-01-08 19:27:38
Tagged date : UTC 2017-01-08 19:28:03

Audio
ID : 101
Format :
Format/Info : Advanced Audio Codec
Format profile : LC
Codec ID : 40
Duration : 1 h 36 min
Bit rate mode : Variable
Bit rate : 126 kb/s
Maximum bit rate : 252 kb/s
Channel(s) : 2 channels
Channel positions : Front: L R
Sampling rate : 44.1 kHz
Frame rate : 43.066 FPS (1024 spf)
Compression mode : Lossy
Stream size : 87.0 MiB (8%)
Encoded date : UTC 2017-01-08 19:27:46
Tagged date : UTC 2017-01-08 19:28:03

Other #1
ID : 2
Type : Object description
Format : System
Codec ID : 1
Duration : 1 s 0 ms
Encoded date : UTC 2017-01-08 19:28:03
Tagged date : UTC 2017-01-08 19:28:03

Other #2
ID : 1
Type : Scene description
Format : System Core
Codec ID : 2
Duration : 1 s 0 ms
Encoded date : UTC 2017-01-08 19:28:03
Tagged date : UTC 2017-01-08 19:28:03
Скріншоти



Особиста оцінка: 8 - мені сподобалося


Авторський реліз (завантажувати можна без реєстрації)
 Трекер:    Зареєстрований   

Завантажити / скачати фільм українською



відео для новачків



 Зареєстрований:   2017-01-08 23:02
 Розмір:   1.12 GB 
 Оцінка фільму:   -/10 (Голосів: 0)
   
Інші релізи
Ваш часовий пояс: GMT + 2 Години

Нова тема   Відповісти