Баффі - переможниця вампірів (Баффі - винищувачка вампірів) / Buffy the Vampire Slayer (1992) 720p 2xUkr/Eng

Нові коментарі

Нова тема   Відповісти
Автор Повідомлення
Anonymous 







2017-01-08 13:01  
Баффі - переможниця вампірів / Баффі - винищувачка вампірів / Buffy the Vampire Slayer (1992) 720p 2xUkr/Eng

Баффі - переможниця вампірів (Баффі - винищувачка вампірів) / Buffy the Vampire Slayer (1992) 720p 2xUkr/Eng


Жанр: жахи, комедія, екшн
Країна: США



Кінокомпанія: ХХ сторіччя Фокс
Режисер: Френ Рубел Кузуї
Актори: Крісті Свенсон, Дональд Сазерленд, Пол Рубенс, Рутгер Хауер, Люк Перрі, Бен Аффлек

Сюжет:
Відчайдушна блондинка на ім'я Баффі - звичайна старшокласниця, що абсолютно невгамовна в походах по крамницях і живе за принципом: "Помри, але вийди заміж за кінозірку". Але раптово все змінюється: якийсь чоловік повідомляє Баффі, що її справжнє призначення - винищування вампірів.
Фільм є пріквелом однойменного серіалу.


Тривалість: 01:25:30
Якість:
Відео:
кодек:
розмір кадру: 1280 х 696
бітрейт: 5 846 кб/с

Аудіо # 1:
мова: українська
переклад: багатоголосий закадровий Новий Канал
кодек: 5.0
бітрейт: 448 кб/с

Аудіо # 2:
мова: українська
переклад: двоголосий закадровий 1+1
кодек: 5.0
бітрейт: 448 кб/с

Аудіо # 3:
мова: англійська
переклад: оригінал
кодек: 5.1
бітрейт: 448 кб/с

Субтитри:
мова: українська (форсовані, на титри у кінці)
тип: програмні (м'які)
формат: *.srt
Info
Complete name : E:\Buffy.The.Vampire.Slayer.(1992) 720 [Hurtom].
Format :
Format version : Version 4 / Version 2
File size : 4.29 GiB
Duration : 1h 25mn
Overall bit rate : 7 178 Kbps
Encoded date : UTC 2017-06-28 16:26:50
Writing application : mkvmerge v12.0.0 ('Trust / Lust') 64bit
Writing library : libebml v1.3.4 + libmatroska v1.4.5
Attachements : poster.jpg
DURATION : 00:04:04.332000000
NUMBER_OF_FRAMES : 81
NUMBER_OF_BYTES : 3917
_STATISTICS_WRITING_APP : mkvmerge v12.0.0 ('Trust / Lust') 64bit
_STATISTICS_WRITING_DATE_UTC : 2017-06-28 16:26:50
_STATISTICS_TAGS : BPS DURATION NUMBER_OF_FRAMES NUMBER_OF_BYTES

Video
ID : 1
Format : AVC
Format/Info : Advanced Video Codec
Format profile : [email protected]
Format settings, CABAC : Yes
Format settings, ReFrames : 9 frames
Codec ID : V_MPEG4/ISO/AVC
Duration : 1h 25mn
Bit rate : 5 846 Kbps
Width : 1 280 pixels
Height : 696 pixels
Display aspect ratio : 1.85:1
Frame rate mode : Constant
Frame rate : 23.976 fps
Color space : YUV
Chroma subsampling : 4:2:0
Bit depth : 8 bits
Scan type : Progressive
Bits/(Pixel*Frame) : 0.274
Stream size : 3.40 GiB (79%)
Writing library : core 146 r2538 121396c
Encoding settings : cabac=1 / ref=9 / deblock=1:-3:-3 / analyse=0x3:0x133 / me=umh / subme=11 / psy=1 / psy_rd=1.00:0.00 / mixed_ref=1 / me_range=32 / chroma_me=1 / trellis=2 / 8x8dct=1 / cqm=0 / deadzone=21,11 / fast_pskip=0 / chroma_qp_offset=-2 / threads=12 / lookahead_threads=3 / sliced_threads=0 / nr=0 / decimate=0 / interlaced=0 / bluray_compat=0 / constrained_intra=0 / bframes=8 / b_pyramid=2 / b_adapt=2 / b_bias=0 / direct=3 / weightb=1 / open_gop=0 / weightp=2 / keyint=240 / keyint_min=23 / scenecut=40 / intra_refresh=0 / rc=2pass / mbtree=0 / bitrate=5846 / ratetol=1.0 / qcomp=0.60 / qpmin=0 / qpmax=69 / qpstep=4 / cplxblur=20.0 / qblur=0.5 / ip_ratio=1.40 / pb_ratio=1.30 / aq=3:1.00
Language : English
Default : Yes
Forced : No
DURATION : 01:25:31.001000000
NUMBER_OF_FRAMES : 123021
NUMBER_OF_BYTES : 3745337782
_STATISTICS_WRITING_APP : mkvmerge v12.0.0 ('Trust / Lust') 64bit
_STATISTICS_WRITING_DATE_UTC : 2017-06-28 16:26:50
_STATISTICS_TAGS : BPS DURATION NUMBER_OF_FRAMES NUMBER_OF_BYTES

Audio #1
ID : 2
Format : AC-3
Format/Info : Audio Coding 3
Mode extension : CM (complete main)
Format settings, Endianness : Big
Codec ID : A_AC3
Duration : 1h 25mn
Bit rate mode : Constant
Bit rate : 448 Kbps
Channel(s) : 5 channels
Channel positions : Front: L C R, Side: L R
Sampling rate : 48.0 KHz
Bit depth : 16 bits
Compression mode : Lossy
Delay relative to video : 1s 0ms
Stream size : 274 MiB (6%)
Default : Yes
Forced : Yes

Audio #2
ID : 3
Format : AC-3
Format/Info : Audio Coding 3
Mode extension : CM (complete main)
Format settings, Endianness : Big
Codec ID : A_AC3
Duration : 1h 25mn
Bit rate mode : Constant
Bit rate : 448 Kbps
Channel(s) : 5 channels
Channel positions : Front: L C R, Side: L R
Sampling rate : 48.0 KHz
Bit depth : 16 bits
Compression mode : Lossy
Delay relative to video : 1s 0ms
Stream size : 274 MiB (6%)
Default : No
Forced : No

Audio #3
ID : 4
Format : AC-3
Format/Info : Audio Coding 3
Mode extension : CM (complete main)
Format settings, Endianness : Big
Codec ID : A_AC3
Duration : 1h 25mn
Bit rate mode : Constant
Bit rate : 448 Kbps
Channel(s) : 6 channels
Channel positions : Front: L C R, Side: L R, LFE
Sampling rate : 48.0 KHz
Bit depth : 16 bits
Compression mode : Lossy
Stream size : 274 MiB (6%)
Language : English
Default : No
Forced : No

Text
ID : 5
Format : UTF-8
Codec ID : S_TEXT/UTF8
Codec ID/Info : UTF-8 Plain Text
Default : Yes
Forced : Yes

Menu
00:00:00.000 : en:00:00:00.000
00:00:59.810 : en:00:00:59.810
00:03:45.434 : en:00:03:45.434
00:07:11.598 : en:00:07:11.598
00:08:50.780 : en:00:08:50.780
00:10:33.800 : en:00:10:33.800
00:11:56.090 : en:00:11:56.090
00:14:15.271 : en:00:14:15.271
00:15:57.373 : en:00:15:57.373
00:20:38.195 : en:00:20:38.195
00:23:26.363 : en:00:23:26.363
00:24:42.106 : en:00:24:42.106
00:29:59.798 : en:00:29:59.798
00:34:30.235 : en:00:34:30.235
00:35:44.851 : en:00:35:44.851
00:38:54.582 : en:00:38:54.582
00:42:34.469 : en:00:42:34.469
00:47:39.190 : en:00:47:39.190
00:50:59.098 : en:00:50:59.098
00:52:50.709 : en:00:52:50.709
00:55:11.683 : en:00:55:11.683
00:57:02.461 : en:00:57:02.461
00:59:45.874 : en:00:59:45.874
01:02:45.971 : en:01:02:45.971
01:07:26.376 : en:01:07:26.376
01:12:14.121 : en:01:12:14.121
01:14:39.016 : en:01:14:39.016
01:16:09.732 : en:01:16:09.732
01:19:00.778 : en:01:19:00.778
01:21:18.999 : en:01:21:18.999
Скріншоти






Джерело:
Особиста оцінка: 8 - мені сподобалося (гарячі дівчата і вампіри)
Особиста подяка: Hulk1987 - за надану сиру доріжку "Нового каналу", rooster-у за створення українських доріжок
P.S. Переклад від "Нового каналу" трохи точніший, але в обох українських доріжках відсутній переклад на фінальних титрах, наявна цензура (00:04:44,623 --> 00:04:47,421)
P.P.S
gossip girl написано:
це - пародія на тогочасні фільми жахів. а серіал створений "під впливом" цього фільму: із комедії взяли історію, створивши серйозний серіал


Срібний реліз (на рейтинг впливає 50% завантаженого)
 Трекер:    Зареєстрований   

Завантажити / скачати фільм українською



відео для новачків



 Зареєстрований:   2017-06-30 20:56
 Розмір:   4.29 GB 
 Оцінка фільму:   5.1/10 (Голосів: 20)
   
staf777 
Відео Гуртом - підтримка та поширення
Відео Гуртом - підтримка та поширення


З нами з: 16.11.16
Востаннє: 16.08.17
Повідомлень: 522

2017-01-11 12:11  
Дякую - щоб ще серіал усі сезони хтось виклав
Anonymous 







2017-06-30 20:58  
Торент оновлено. Замінив відеоряд на нормальний який відповідає вимогам трекера.

igor911 
Відео Гуртом
Відео Гуртом


З нами з: 18.01.08
Востаннє: 20.08.17
Повідомлень: 7291

2017-06-30 21:34  
Українські субтитри померли разом з двд https://toloka.to/t18641 ?
Electroz 
Відео Гуртом - підтримка та поширення
Відео Гуртом - підтримка та поширення


З нами з: 18.09.14
Востаннє: 19.08.17
Повідомлень: 1493

2017-06-30 21:39  
igor911
То напевно форсовані субтитри, як у ріпі https://toloka.to/t20086

igor911 
Відео Гуртом
Відео Гуртом


З нами з: 18.01.08
Востаннє: 20.08.17
Повідомлень: 7291

2017-06-30 21:42  
та ні, то повні субтитри [були]
Hentaihunter написано:
тому для комфортного перегляду рекомендуються повні субтитри з оригінальним звуком, які є лише на DVD.

Electroz 
Відео Гуртом - підтримка та поширення
Відео Гуртом - підтримка та поширення


З нами з: 18.09.14
Востаннє: 19.08.17
Повідомлень: 1493

2017-06-30 21:55  
igor911
Вантажу той двд з рутрекера. Прохання підтримати завантаження, бо швидкість 30 кб/с Sad (1)

Electroz 
Відео Гуртом - підтримка та поширення
Відео Гуртом - підтримка та поширення


З нами з: 18.09.14
Востаннє: 19.08.17
Повідомлень: 1493

2017-07-02 19:38  
igor911 написано:
Українські субтитри померли разом з двд https://toloka.to/t18641 ?

Ось субтитри з двд, але треба ще їх розпізнати.
https://fex.net/#!756532794324

igor911 
Відео Гуртом
Відео Гуртом


З нами з: 18.01.08
Востаннє: 20.08.17
Повідомлень: 7291

2017-07-02 20:40  
Electroz написано:
але треба ще їх розпізнати.

займаюсь цим, саби виявились гуглоперекладом з московської говірки...

Hentaihunter 
VIP


З нами з: 16.08.08
Востаннє: 19.08.17
Повідомлень: 2362

2017-07-04 08:27  
Electroz написано:
той двд з рутрекера

Мушу засмутити, але мій DVD не мав жодного відношення до того, що роздається на рутрекері. Саби створювалися шляхом власного перекладу з англійської. Ви марно згаяли час і трафік.

Ваш часовий пояс: GMT + 2 Години

Нова тема   Відповісти