Їсти, молитися, кохати / Eat Pray Love (2010) 720p [Theatrical Cut] Ukr/Eng | Sub Eng

Нові коментарі

Нова тема   Відповісти
Автор Повідомлення
staf777 
Попереджень: 1
Попереджень: 1 


З нами з: 16.11.16
Востаннє: 23.07.18
Повідомлень: 1274

2017-01-07 22:30  
Їсти, молитися, кохати / Eat Pray Love (2010) 720p [Theatrical Cut] Ukr/Eng | Sub Eng

Їсти, молитися, кохати / Eat Pray Love (2010) 720p [Theatrical Cut] Ukr/Eng | Sub Eng


Жанр: драма, мелодрама
Країна: США



Кінокомпанія: Sony Pictures
Режисер: Райан Мерфі
Актори: Джулія Робертс (Ліз Гілберт), Біллі Крудап (Стівен), Джеймс Франко (Девід Пікколо), Хав'єр Бардем (Феліпе), Віола Девіс (Делія Шираз), Річард Дженкінс (Річард з Техасу)

Сюжет:
У Ліз Гілберт (Джулія Робертс) було все, про що мріє сучасна жінка — чоловік, будинок, успішна кар'єра — але вона почувається спантеличеною і шукає те, чого вона дійсно хоче від життя. Ліз розлучається зі своїм чоловіком і, щоб змінити своє життя, ризикуючи всім, стає на шлях самопізнання і починає подорожувати світом. Під час мандрівок вона отримує справжнє задоволення від їжі, перебуваючи в Італії, від сили молитви в Індії, і, нарешті, справжнє кохання на Балі.
В основу стрічки покладено реальні події, а сам фільм наочно доводить, що пізнавати світ і самого себе можна по-різному.


Тривалість: 02:20:05
Якість: 720p
Відео:
кодек:
розмір кадру: 1280x692
бітрейт: 6281 кб/с

Аудіо # 1:
мова: українська
переклад: професійний дубльований
кодек: 5.1
бітрейт: 448 кб/с

Аудіо # 2:
мова: англійська
переклад: оригінал
кодек: 5.1
бітрейт: 1509 кб/с

Субтитри:
мова: англійська
тип: програмні (м'які)
формат: *.srt
Info
General
Unique ID : 247355279926869116171505959813610003993 (0xBA16E4E08C8539E0A036CFFB3624DE19)
Complete name : F:\» HD українською » Фільми в HD\Драма\Eat Pray Love (2010) [Ukr,Eng sub.Eng] 720p [Hurtom].
Format :
Format version : Version 4 / Version 2
File size : 8.06 GiB
Duration : 2 h 20 min
Overall bit rate : 8 241 kb/s
Movie name : Eat Pray Love (2010) [Ukr,Eng sub.Eng] 720p [Hurtom]
Encoded date : UTC 2017-01-07 21:22:51
Writing application : v9.5.0 ('Quiet Fire') 64bit
Writing library : libebml v1.3.4 + v1.4.5
Cover : Yes
Attachments : cover.jpg..jpg

Video
ID : 1
Format : AVC
Format/Info : Advanced Video Codec
Format profile : [email protected]
Format settings : CABAC / 6 Ref Frames
Format settings, CABAC : Yes
Format settings, ReFrames : 6 frames
Codec ID : V_MPEG4/ISO/AVC
Duration : 2 h 20 min
Bit rate : 6 281 kb/s
Width : 1 280 pixels
Height : 692 pixels
Display aspect ratio : 1.85:1
Frame rate mode : Constant
Frame rate : 23.976 (24000/1001) FPS
Color space : YUV
Chroma subsampling : 4:2:0
Bit depth : 8 bits
Scan type : Progressive
Bits/(Pixel*Frame) : 0.296
Stream size : 6.15 GiB (76%)
Title : Eat Pray Love (2010) - Release for Hurtom
Writing library : core 107 r1766 f9f0035
Encoding settings : cabac=1 / ref=6 / deblock=1:-3:-3 / analyse=0x3:0x113 / me=esa / subme=10 / psy=1 / psy_rd=0.90:0.05 / mixed_ref=1 / me_range=24 / chroma_me=1 / trellis=2 / 8x8dct=1 / cqm=0 / deadzone=21,11 / fast_pskip=0 / chroma_qp_offset=-3 / threads=6 / sliced_threads=0 / nr=0 / decimate=1 / interlaced=0 / constrained_intra=0 / bframes=7 / b_pyramid=2 / b_adapt=2 / b_bias=0 / direct=1 / weightb=1 / open_gop=0 / weightp=2 / keyint=250 / keyint_min=23 / scenecut=40 / intra_refresh=0 / rc=crf / mbtree=0 / crf=16.9 / qcomp=0.60 / qpmin=10 / qpmax=51 / qpstep=4 / ip_ratio=1.40 / pb_ratio=1.30 / aq=1:0.80
Language : English
Default : Yes
Forced : No

Audio #1
ID : 2
Format : AC-3
Format/Info : Audio Coding 3
Codec ID : A_AC3
Duration : 2 h 20 min
Bit rate mode : Constant
Bit rate : 448 kb/s
Channel(s) : 6 channels
Channel positions : Front: L C R, Side: L R, LFE
Sampling rate : 48.0 kHz
Frame rate : 31.250 FPS (1536 SPF)
Bit depth : 16 bits
Compression mode : Lossy
Stream size : 449 MiB (5%)
Title : [Hurtom] by DejaVu [Blu-Ray (Dubl)]
Language : Ukrainian
Service kind : Complete Main
Default : Yes
Forced : Yes

Audio #2
ID : 3
Format :
Format/Info : Digital Theater Systems
Codec ID : A_DTS
Duration : 2 h 20 min
Bit rate mode : Constant
Bit rate : 1 509 kb/s
Channel(s) : 6 channels
Channel positions : Front: L C R, Side: L R, LFE
Sampling rate : 48.0 kHz
Frame rate : 93.750 FPS (512 SPF)
Bit depth : 24 bits
Compression mode : Lossy
Stream size : 1.48 GiB (18%)
Title : original [ 6ch 1509 kbps]
Language : English
Default : No
Forced : No

Text
ID : 4
Format : UTF-8
Codec ID : S_TEXT/UTF8
Codec ID/Info : UTF-8 Plain Text
Duration : 2 h 12 min
Bit rate : 58 b/s
Count of elements : 1561
Stream size : 57.1 KiB (0%)
Language : English
Default : No
Forced : No
Скріншоти




Джерело: &
Особиста оцінка: 0 - не дивився
Їсти, молитися, кохати / Eat Pray Love (2010) 720p [Theatrical Cut] Ukr/Eng | Sub Eng


 Трекер:    Зареєстрований   

Завантажити / скачати фільм українською



відео для новачків



 Зареєстрований:   2017-01-08 00:42
 Розмір:   8.06 GB 
 Оцінка фільму:   7/10 (Голосів: 5)
   
Ваш часовий пояс: GMT + 2 Години

Нова тема   Відповісти