Бетховен / Beethoven (1992) 2xUkr/Eng | Sub Eng

Нові коментарі

Нова тема   Відповісти
Автор Повідомлення
Anonymous 







2017-01-07 17:12  
Бетховен / Beethoven (1992) 2xUkr/Eng | Sub Eng


Оригінальна обкладинка


повнорозмірне зображення відкриється по кліку (з натиснутим CTRL чи кліком середньою кнопкою мишки - у новій вкладці)

Жанр: комедія, дитячий, сімейний, драма
Країна: США

Кінокомпанія: Universal Pictures, Northern Lights
Режисер: Брайан Левант / Brian Levant
Актори: Чарлз Гродін / Charles Grodin (Джордж Ньютон), Бонні Гант / Bonnie Hunt (Еліс Ньютон), Дін Джонс / Dean Jones (Герман Варнік), Ніколь Том / Nicholle Tom (Райс Ньютон), Крістофер Кастіль / Christopher Castile (Тед Ньютон), Сара Роуз Карр / Sarah Rose Karr (Емілі Ньютон), Олівер Платт / Oliver Platt (Гарві), Стенлі Туччі / Stanley Tucci (Вернон), Девід Духовний / David Duchovny (Бред), Патриція Гітон / Patricia Heaton (Брі) та інші

Сюжет:
Герой фільму — сенбернар Бетховен. Попавши ще цуциком в сім'ю Ньютонів, Бетховен швидко подружився з дітьми і їх мамою, тільки батько дивився на пса косо.
До одного ветеринара надійшло замовлення на випробування нових куль. Для проведення дослідів необхідна велика собака. В маленькому містечку знайти таку — досить важке завдання, але йому повезло — до нього на прийом прийшла сім'я Ньютонів зі своїм псом Бетховеном. Ветеринар вирішує будь якою ціною отримати собаку…

Рейтинг MPAA: PG - рекомендується присутність батьків
Вікова категорія: 6+
Тривалість: 01:27:01
Якість:
Відео:
кодек:
розмір кадру: 704x384
бітрейт: 1800 кб/с

Аудіо # 1:
мова: українська
переклад: багатоголосий закадровий
кодек: 2.0
бітрейт: 192 кб/с

Аудіо # 2:
мова: українська
переклад: багатоголосий закадровий
кодек: 2.0
бітрейт: 192 кб/с

Аудіо # 3:
мова: англійська
переклад: оригінал
кодек: 2.0
бітрейт: 192 кб/с

Субтитри:
мова: англійська - завантажити
тип: програмні (м'які)
формат: *.srt
Info
Код:
Format                      : AVI
Format/Info                 : Audio Video Interleave
File size                   : 1.46 GiB
Duration                    : 1 h 27 min
Overall bit rate            : 2 396 kb/s

Video
ID                          : 0
Format                      : MPEG-4 Visual
Format profile              : Advanced Simple@L5
Format settings, BVOP       : 1
Format settings, QPel       : No
Format settings, GMC        : No warppoints
Format settings, Matrix     : Custom
Codec ID                    :
Codec ID/Hint               :
Duration                    : 1 h 27 min
Bit rate                    : 1 801 kb/s
Width                       : 704 pixels
Height                      : 384 pixels
Display aspect ratio        : 1.85:1
Frame rate                  : 23.976 (24000/1001) FPS
Color space                 : YUV
Chroma subsampling          : 4:2:0
Bit depth                   : 8 bits
Scan type                   : Progressive
Compression mode            : Lossy
Bits/(Pixel*Frame)          : 0.278
Stream size                 : 1.09 GiB (75%)
Writing library             : 66

Audio #1
ID                          : 1
Format                      : AC-3
Format/Info                 : Audio Coding 3
Format profile              : Dolby Digital
Mode extension              : CM (complete main)
Format settings, Endianness : Big
Codec ID                    : 2000
Duration                    : 1 h 26 min
Bit rate mode               : Constant
Bit rate                    : 192 kb/s
Channel(s)                  : 2 channels
Channel positions           : Front: L R
Sampling rate               : 48.0 kHz
Frame rate                  : 31.250 FPS (1536 spf)
Bit depth                   : 16 bits
Compression mode            : Lossy
Stream size                 : 119 MiB (8%)
Alignment                   : Split accross interleaves
Interleave, duration        : 42  ms (1.00 video frame)
Interleave, preload duratio : 500  ms
Title                       : UKR MVO Ukraina

Audio #2
ID                          : 2
Format                      : AC-3
Format/Info                 : Audio Coding 3
Format profile              : Dolby Digital
Mode extension              : CM (complete main)
Format settings, Endianness : Big
Codec ID                    : 2000
Duration                    : 1 h 26 min
Bit rate mode               : Constant
Bit rate                    : 192 kb/s
Channel(s)                  : 2 channels
Channel positions           : Front: L R
Sampling rate               : 48.0 kHz
Frame rate                  : 31.250 FPS (1536 spf)
Bit depth                   : 16 bits
Compression mode            : Lossy
Stream size                 : 119 MiB (8%)
Alignment                   : Split accross interleaves
Interleave, duration        : 42  ms (1.00 video frame)
Interleave, preload duratio : 500  ms
Title                       : UKR MVO ICTV

Audio #3
ID                          : 3
Format                      : AC-3
Format/Info                 : Audio Coding 3
Mode extension              : CM (complete main)
Format settings, Endianness : Big
Codec ID                    : 2000
Duration                    : 1 h 27 min
Bit rate mode               : Constant
Bit rate                    : 192 kb/s
Channel(s)                  : 2 channels
Channel positions           : Front: L R
Sampling rate               : 48.0 kHz
Frame rate                  : 31.250 FPS (1536 spf)
Bit depth                   : 16 bits
Compression mode            : Lossy
Stream size                 : 120 MiB (8%)
Alignment                   : Split accross interleaves
Interleave, duration        : 42  ms (1.00 video frame)
Interleave, preload duratio : 500  ms
Title                       : ENG


Джерело: &
Подяка п.Sando7 за українські доріжки.
Особиста оцінка: 10 - рекомендую всім дітям та їх батькам



Срібний реліз (на рейтинг впливає 50% завантаженого)
 Трекер:    Зареєстрований   

Завантажити / скачати фільм українською



відео для новачків



 Зареєстрований:   2017-01-07 17:24
 Розмір:   1.46 GB 
 Оцінка фільму:   4/10 (Голосів: 15)
   
Інші релізи
   Бетховен / Beethoven (1992) 720p 2xUkr/Eng | Sub Eng staf777  2 / 0   5.92 GB   2017-01-03 14:36 
Bingli 
Новенький


З нами з: 13.01.14
Востаннє: 20.06.17
Повідомлень: 16

2017-01-07 21:13  
Хто не бачив, не зволікайте! Точно не пошкудуєте!
Ваш часовий пояс: GMT + 2 Години

Нова тема   Відповісти