Марлі та я / Marley & Me (2008) 1080p Ukr/Eng | Sub Ukr/Eng

Нові коментарі

Нова тема   Відповісти
Автор Повідомлення
staf777 
Відео Гуртом - підтримка та поширення
Відео Гуртом - підтримка та поширення


З нами з: 16.11.16
Востаннє: 06.11.17
Повідомлень: 522

2017-01-07 08:27  
Марлі та я / Marley & Me (2008) 1080p Ukr/Eng | Sub Ukr/Eng

Марлі та я / Marley & Me (2008) 1080p Ukr/Eng | Sub Ukr/Eng


Жанр: комедія, мелодрама, сімейний, романтичний
Країна: США



Кінокомпанія: 20th Century Fox
Режисер: Девід Франкель
Актори: Оуен Вілсон, Дженіфер Аністон, Ерік Дейн, Кетлін Тернер, Алан Аркін

Сюжет:
Джон і Джен вирішують завести справжню сім'ю: будинок і звичайно діти, в перспективі. Але діти, це така відповідальність! Навіщо ускладнювати власне життя, коли можна спочатку спробувати на собаці, адже вона майже як дитина…


Тривалість: 01:55:33
Якість: 1080p
Відео:
кодек:
розмір кадру: 1920x816
бітрейт: 14604 кб/с

Аудіо # 1:
мова: українська
переклад: професійний дубльований
кодек: 5.1
бітрейт: 448 кб/с

Аудіо # 2:
мова: англійська
переклад: оригінал
кодек: 5.1
бітрейт: 1509 кб/с

Субтитри:
мова: українська
тип: програмні (м'які)
формат: *.srt

Субтитри:
мова: англійська
тип: програмні (м'які)
формат: *.srt
Info
General
Unique ID : 182094666052846534799601035879633445131 (0x88FE283192E89C5B821AC08837ACE10B)
Complete name : F:\» HD українською » Фільми в HD\Комедія\Marley And Me (2008) [Ukr,Eng sub.Ukr,Eng] 1080p [Hurtom] (1).
Format :
Format version : Version 4 / Version 2
File size : 13.4 GiB
Duration : 1h 55mn
Overall bit rate : 16.6 Mbps
Movie name : Marley And Me (2008) [Ukr,Eng sub.Ukr,Eng] 1080p [Hurtom]
Encoded date : UTC 2017-01-07 20:07:09
Writing application : mkvmerge v9.5.0 ('Quiet Fire') 64bit
Writing library : libebml v1.3.4 + libmatroska v1.4.5
Attachements : cover.jpg..jpg

Video
ID : 1
Format : AVC
Format/Info : Advanced Video Codec
Format profile : [email protected]
Format settings, CABAC : Yes
Format settings, ReFrames : 5 frames
Codec ID : V_MPEG4/ISO/AVC
Duration : 1h 55mn
Bit rate : 14.6 Mbps
Width : 1 920 pixels
Height : 816 pixels
Display aspect ratio : 2.35:1
Frame rate mode : Constant
Frame rate : 23.976 fps
Color space : YUV
Chroma subsampling : 4:2:0
Bit depth : 8 bits
Scan type : Progressive
Bits/(Pixel*Frame) : 0.389
Stream size : 11.8 GiB (88%)
Title : Release for Hurtom
Writing library : core 67 r1137M 1fda882
Encoding settings : cabac=1 / ref=5 / deblock=1:-3:-3 / analyse=0x3:0x113 / me=umh / subme=9 / psy_rd=1.1:0.0 / mixed_ref=1 / me_range=32 / chroma_me=1 / trellis=2 / 8x8dct=1 / cqm=0 / deadzone=21,11 / chroma_qp_offset=-2 / threads=6 / nr=0 / decimate=1 / mbaff=0 / bframes=3 / b_pyramid=1 / b_adapt=2 / b_bias=0 / direct=3 / wpredb=1 / keyint=250 / keyint_min=25 / scenecut=40 / rc=2pass / bitrate=14604 / ratetol=1.0 / qcomp=0.60 / qpmin=10 / qpmax=51 / qpstep=4 / cplxblur=20.0 / qblur=0.5 / ip_ratio=1.40 / pb_ratio=1.30 / aq=1:0.80
Language : English
Default : Yes
Forced : No

Audio #1
ID : 2
Format : AC-3
Format/Info : Audio Coding 3
Mode extension : CM (complete main)
Format settings, Endianness : Big
Codec ID : A_AC3
Duration : 1h 55mn
Bit rate mode : Constant
Bit rate : 448 Kbps
Channel(s) : 6 channels
Channel positions : Front: L C R, Side: L R, LFE
Sampling rate : 48.0 KHz
Frame rate : 31.250 fps (1536 spf)
Compression mode : Lossy
Stream size : 370 MiB (3%)
Title : UA-DUB
Language : Ukrainian
Default : Yes
Forced : Yes

Audio #2
ID : 3
Format :
Format/Info : Digital Theater Systems
Mode : 16
Format settings, Endianness : Big
Codec ID : A_DTS
Duration : 1h 55mn
Bit rate mode : Constant
Bit rate : 1 509 Kbps
Channel(s) : 6 channels
Channel positions : Front: L C R, Side: L R, LFE
Sampling rate : 48.0 KHz
Frame rate : 93.750 fps (512 spf)
Bit depth : 24 bits
Compression mode : Lossy
Stream size : 1.22 GiB (9%)
Title : 5.1 1536 Kbps
Language : English
Default : No
Forced : No

Text #1
ID : 4
Format : UTF-8
Codec ID : S_TEXT/UTF8
Codec ID/Info : UTF-8 Plain Text
Duration : 1h 54mn
Bit rate : 123 bps
Count of elements : 1629
Stream size : 103 KiB (0%)
Language : Ukrainian
Default : Yes
Forced : No

Text #2
ID : 5
Format : UTF-8
Codec ID : S_TEXT/UTF8
Codec ID/Info : UTF-8 Plain Text
Duration : 1h 53mn
Bit rate : 84 bps
Count of elements : 1696
Stream size : 70.3 KiB (0%)
Language : English
Default : No
Forced : No
Скріншоти





Джерело: &
Особиста оцінка: 8 - мені сподобалося
Марлі та я / Marley & Me (2008) 1080p Ukr/Eng | Sub Ukr/Eng


 Трекер:    Зареєстрований   

Завантажити / скачати фільм українською



відео для новачків



 Зареєстрований:   2017-01-07 22:33
 Розмір:   13.37 GB 
 Оцінка фільму:   9.9/10 (Голосів: 7)
   
Інші релізи
   Марлі та я / Marley & Me (2008) patriot2305  6 / 0   1.45 GB   2014-11-20 21:47 
   Марлі та я / Marley & Me (2008) 720p Ukr/Eng | Sub Multilanguage DiGen  0 / 0   6.6 GB   2010-04-08 13:06 
   Марлі та Я / Marley & Me (2008) Ukr/Eng | Sub Ukr/Eng DemsOFF  6 / 0   2.18 GB   2010-03-09 19:05 
romanonykon 
Новенький


З нами з: 12.11.14
Востаннє: 02.09.17
Повідомлень: 1

2017-08-14 15:29  
Велике спасибі за фільм!
Ваш часовий пояс: GMT + 2 Години

Нова тема   Відповісти