Незабутнє / Unforgettable (1996) Ukr/Eng | Sub Eng

Нові коментарі

Нова тема   Відповісти
Автор Повідомлення
Anonymous 







2017-01-07 02:00  
Незабутнє / Unforgettable (1996) Ukr/Eng | Sub Eng



Жанр: фантастика, трилер, драма, детектив
Країна: США



Кінокомпанія: Dino De Laurentiis Company, Metro-Goldwyn-Mayer (MGM), Spelling Films
Режисер: Джон Дал / John Dahl
Актори: Рей Ліотта / Ray Liotta, Лінда Фіорентіно / Linda Fiorentino, Пітер Койот / Peter Coyote, Крістофер МакДональд / Christopher McDonald, Девід Пеймер / David Paymer, Кім Кетрел / Kim Cattrall, Дункан Фрейзер / Duncan Fraser, Колін Реннісон / Colleen Rennison, Керолайн Елліот / Caroline Elliott, Кім Коутс / Kim Coates та інші

Сюжет:
Дружину судмедексперта Девіда Крейна було по звірячому вбито, а сам Девід в стані алкогольного сп'яніння знаходився поруч, де його й затримала поліція. Через відсутність доказів проти нього, суд зняв з Девіда звинувачення у вбивстві, але позбавив його батьківських прав.

Випадково почувши доповідь нейробіолога Марти Брігс, Девід приймає рішення стати піддослідним щуром. Справа в тому, що якщо ввести собі спинномозкову рідину мертвої людини, то можна бачити, що сталося перед смертю її очима. Кілька ін'єкцій - і Девід розкриває страшний злочин, але життя самого Девіда тепер висить на волосині - вибереться він з цього експерименту чи загине, як гине кожна восьма піддослідна тварина?


Рейтинг MPAA: R - особам до 17 років обов'язкова присутність батьків або дорослого опікуна
Вікова категорія: 16+

Тривалість: 01:56:47
Якість:
Відео:
кодек:
розмір кадру: 704x384
бітрейт: 1899 кб/с

Аудіо # 1:
мова: українська
переклад: двоголосий закадровий
кодек: 2.0
бітрейт: 192 кб/с

Аудіо # 2:
мова: англійська
переклад: оригінал
кодек: 5.1
бітрейт: 384 кб/с

Субтитри:
мова: англійська (завантажити)
тип: програмні (м'які)
формат: *.srt
Info
Код:
Format/Info                 : Audio Video Interleave
Format profile              : OpenDML
File size                   : 2.03 GiB
Duration                    : 1 h 56 min
Overall bit rate            : 2 483 kb/s

Video
ID                          : 0
Format                      : MPEG-4 Visual
Format profile              : Advanced [email protected]
Format settings, BVOP       : 1
Format settings, QPel       : No
Format settings, GMC        : No warppoints
Format settings, Matrix     : Custom
Codec ID                    :
Codec ID/Hint               :
Duration                    : 1 h 56 min
Bit rate                    : 1 889 kb/s
Width                       : 704 pixels
Height                      : 384 pixels
Display aspect ratio        : 1.85:1
Frame rate                  : 23.976 (24000/1001) FPS
Color space                 : YUV
Chroma subsampling          : 4:2:0
Bit depth                   : 8 bits
Scan type                   : Progressive
Compression mode            : Lossy
Bits/(Pixel*Frame)          : 0.291
Stream size                 : 1.54 GiB (76%)
Writing library             : 65

Audio #1
ID                          : 1
Format                      : AC-3
Format/Info                 : Audio Coding 3
Mode extension              : CM (complete main)
Format settings, Endianness : Big
Codec ID                    : 2000
Duration                    : 1 h 56 min
Bit rate mode               : Constant
Bit rate                    : 192 kb/s
Channel(s)                  : 2 channels
Channel positions           : Front: L R
Sampling rate               : 48.0 kHz
Frame rate                  : 31.250 FPS (1536 spf)
Bit depth                   : 16 bits
Compression mode            : Lossy
Stream size                 : 160 MiB (8%)
Alignment                   : Split accross interleaves
Interleave, duration        : 42  ms (1.00 video frame)
Interleave, preload duratio : 500  ms
Title                       : UKR DVO [TVi]

Audio #2
ID                          : 2
Format                      : AC-3
Format/Info                 : Audio Coding 3
Mode extension              : CM (complete main)
Format settings, Endianness : Big
Codec ID                    : 2000
Duration                    : 1 h 56 min
Bit rate mode               : Constant
Bit rate                    : 384 kb/s
Channel(s)                  : 6 channels
Channel positions           : Front: L C R, Side: L R, LFE
Sampling rate               : 48.0 kHz
Frame rate                  : 31.250 FPS (1536 spf)
Bit depth                   : 16 bits
Compression mode            : Lossy
Stream size                 : 321 MiB (15%)
Alignment                   : Split accross interleaves
Interleave, duration        : 42  ms (1.00 video frame)
Interleave, preload duratio : 500  ms
Title                       : Eng


Джерело: &
Подяка за українську доріжку п.bodia87


Срібний реліз (на рейтинг впливає 50% завантаженого)
 Трекер:    Зареєстрований   

Завантажити / скачати фільм українською



відео для новачків



 Зареєстрований:   2017-01-07 03:20
 Розмір:   2.03 GB 
 Оцінка фільму:   3.3/10 (Голосів: 14)
   
Інші релізи
   Незабутнє / Unforgettable (1996) 720p Ukr/Eng | Sub Eng staf777  0 / 0   8.66 GB   2017-01-05 12:24 
Ваш часовий пояс: GMT + 2 Години

Нова тема   Відповісти