Інферно / Inferno (2016) Remux 1080p Ukr/Eng | Sub Ukr/Eng

Нові коментарі

Нова тема   Відповісти
Автор Повідомлення
staf777 
Відео Гуртом - підтримка та поширення
Відео Гуртом - підтримка та поширення


З нами з: 16.11.16
Востаннє: 19.09.19
Повідомлень: 2884

2017-01-06 20:14  
Інферно / Inferno (2016) Remux 1080p Ukr/Eng | Sub Ukr/Eng

Інферно / Inferno (2016) Remux 1080p Ukr/Eng | Sub Ukr/Eng
Оригінальний постер

Інферно / Inferno (2016) Remux 1080p Ukr/Eng | Sub Ukr/Eng
Жанр: бойовик, трилер, драма, кримінальний, детектив, пригодницький
Країна: США, Угорщина



Кінокомпанія: olumbia Pictures, Sony Pictures Studios, Imagine Entertainment, LStar Capital, Mid Atlantic Films
Режисер: Рон Говард / Ron Howard
Актори: Том Генкс / Tom Hanks, Фелісіті Джонс / Felicity Jones, Бен Фостер / Ben Foster, Іррфан Кхан / Irrfan Khan, Омар Сі / Omar Sy, Сідсе Бабетт Кнудсен / Sidse Babett Knudsen, Ана Улару / Ana Ularu, Іда Дарвіш / Ida Darvish, Ката Сарбо / Kata Sarbo, Аттіла Арпа / Attila Arpa та інші

Сюжет:
Професор релігійної симвології Роберт Ленґдон прибуває до Флоренції, і одразу опиняється в круговерті загадкових подій, котрі можуть привести людство до загибелі. І лише розгадка таємниці, зашифрованої в безсмертній поемі Данте здатна відвернути невідворотнє...


Тривалість: 02:01:49
Якість: Remux 1080р
Відео:
кодек:
розмір кадру: 1920x1080
бітрейт: 24102 кб/с

Аудіо # 1:
мова: українська
переклад: професійний дубльований
кодек: 2.0
бітрейт: 192 кб/с

Аудіо # 2:
мова: англійська
переклад: оригінал
кодек: -HD MA 5.1
бітрейт: 2269 кб/с

Аудіо # 3:
мова: англійська
переклад: |Descriptive|
кодек: 5.1
бітрейт: 640 кб/с

Субтитри(Full, Forced):
мова: українська
тип: пререндерні
формат: PGS

Субтитри:
мова: українська
тип: програмні (м'які)
формат:PGS

Субтитри:
мова: англійська
тип: пререндерні
формат: PGS

Субтитри:
мова: англійська
тип: пререндерні
формат: PGS
Info
General
Unique ID : 200917323969950601278089321505818164274 (0x972744E0FBFAD936BC96204D7B503C32)
Complete name : E:\HDCLUB\INFERNO_2016_REMUX_HDCLUB\BDMV\STREAM\The Peanuts Movie (2015) [Ukr,Eng sub.Ukr,Eng] Remux 1080p [Hurtom].
Format :
Format version : Version 4 / Version 2
File size : 23.2 GiB
Duration : 2h 1mn
Overall bit rate mode : Variable
Overall bit rate : 27.3 Mbps
Movie name : The Peanuts Movie (2015) [Ukr,Eng sub.Ukr,Eng] Remux 1080p [Hurtom]
Encoded date : UTC 2017-01-09 12:11:27
Writing application : v9.5.0 ('Quiet Fire') 64bit
Writing library : libebml v1.3.4 + v1.4.5
Attachements : cover.jpg..jpg

Video
ID : 1
Format : AVC
Format/Info : Advanced Video Codec
Format profile : [email protected]
Format settings, CABAC : Yes
Format settings, ReFrames : 2 frames
Format settings, GOP : M=1, N=10
Codec ID : V_MPEG4/ISO/AVC
Duration : 2h 1mn
Bit rate mode : Variable
Bit rate : 24.1 Mbps
Width : 1 920 pixels
Height : 1 080 pixels
Display aspect ratio : 16:9
Frame rate mode : Constant
Frame rate : 23.976 (24000/1001) fps
Color space : YUV
Chroma subsampling : 4:2:0
Bit depth : 8 bits
Scan type : Progressive
Bits/(Pixel*Frame) : 0.485
Stream size : 20.5 GiB (88%)
Title : Inferno (2016) Remux 1080p[HURTOM]
Default : Yes
Forced : No

Audio #1
ID : 2
Format : AC-3
Format/Info : Audio Coding 3
Mode extension : CM (complete main)
Format settings, Endianness : Big
Codec ID : A_AC3
Duration : 2h 1mn
Bit rate mode : Constant
Bit rate : 192 Kbps
Channel(s) : 2 channels
Channel positions : Front: L R
Sampling rate : 48.0 KHz
Frame rate : 31.250 fps (1536 spf)
Compression mode : Lossy
Stream size : 167 MiB (1%)
Title : UA-DUB
Language : Ukrainian
Default : Yes
Forced : Yes

Audio #2
ID : 3
Format :
Format/Info : Digital Theater Systems
Format profile : MA / Core
Mode : 16
Format settings, Endianness : Big
Codec ID : A_DTS
Duration : 2h 1mn
Bit rate mode : Variable / Constant
Bit rate : 2 269 Kbps / 1 509 Kbps
Channel(s) : 6 channels
Channel positions : Front: L C R, Side: L R, LFE
Sampling rate : 48.0 KHz
Frame rate : 93.750 fps (512 spf)
Bit depth : 16 bits
Compression mode : Lossless / Lossy
Stream size : 1.93 GiB (8%)
Title : ORIGINAL
Language : English
Default : No
Forced : No

Audio #3
ID : 4
Format : AC-3
Format/Info : Audio Coding 3
Mode extension : CM (complete main)
Format settings, Endianness : Big
Codec ID : A_AC3
Duration : 2h 1mn
Bit rate mode : Constant
Bit rate : 640 Kbps
Channel(s) : 6 channels
Channel positions : Front: L C R, Side: L R, LFE
Sampling rate : 48.0 KHz
Frame rate : 31.250 fps (1536 spf)
Compression mode : Lossy
Delay relative to video : -25ms
Stream size : 557 MiB (2%)
Title : |Descriptive|
Language : English
Default : No
Forced : No

Text #1
ID : 5
Format : PGS
Muxing mode : zlib
Codec ID : S_HDMV/PGS
Codec ID/Info : Picture based subtitle format used on BDs/HD-DVDs
Duration : 1h 50mn
Bit rate : 776 bps
Count of elements : 94
Stream size : 626 KiB (0%)
Language : Ukrainian
Default : Yes
Forced : Yes

Text #2
ID : 6
Format : PGS
Muxing mode : zlib
Codec ID : S_HDMV/PGS
Codec ID/Info : Picture based subtitle format used on BDs/HD-DVDs
Duration : 1h 55mn
Bit rate : 21.6 Kbps
Count of elements : 2796
Stream size : 17.8 MiB (0%)
Language : Ukrainian
Default : No
Forced : No

Text #3
ID : 7
Format : PGS
Muxing mode : zlib
Codec ID : S_HDMV/PGS
Codec ID/Info : Picture based subtitle format used on BDs/HD-DVDs
Duration : 1h 57mn
Bit rate : 18.6 Kbps
Count of elements : 3332
Stream size : 15.6 MiB (0%)
Language : English
Default : No
Forced : No

Text #4
ID : 8
Format : PGS
Muxing mode : zlib
Codec ID : S_HDMV/PGS
Codec ID/Info : Picture based subtitle format used on BDs/HD-DVDs
Duration : 1h 55mn
Bit rate : 16.4 Kbps
Count of elements : 2720
Stream size : 13.5 MiB (0%)
Language : English
Default : No
Forced : No
Скріншоти





Джерело: &
Особиста оцінка: 0 - не дивився


Золотий реліз (завантажене не впливає на рейтинг)
 Трекер:    Зареєстрований   

Завантажити / скачати фільм українською



відео для новачків



 Зареєстрований:   2017-01-09 16:48
 Розмір:   23.15 GB 
 Оцінка фільму:   7.7/10 (Голосів: 25)
   
Інші релізи
   Інферно / Inferno (2016) UHD Remux 4K 2160p HDR H.265 Ukr/Eng | Sub Ukr/Eng Vladuk88  1 / 0   41.47 GB   2018-02-25 17:24 
   Інферно / Inferno (2016) Covenant  27 / 0   1.45 GB   2017-01-10 23:26 
   Інферно / Inferno (2016) 720p Ukr/Eng | Sub Ukr/Eng igor911  8 / 0   9.28 GB   2017-01-10 20:29 
   Інферно / Inferno (2016) 1080p Ukr/Eng | Sub Ukr/Eng Electroz  12 / 0   14.75 GB   2017-01-10 14:06 
   Інферно / Inferno (2016) AVC Ukr/Eng | Sub Ukr/Eng 11FrYkT  10 / 0   2.6 GB   2017-01-06 20:02 
   Інферно / Inferno (2016) Ukr/Eng | Sub Ukr/Eng Gelios  12 / 0   2.18 GB   2017-01-06 19:41 
мистергуд 
Новенький


З нами з: 25.11.16
Востаннє: 15.09.19
Повідомлень: 9

2017-01-07 19:51  
Чесно кажучи не рекомендую, фільм занадто нудний і ні про що.
gasya 
Новенький


З нами з: 19.02.10
Востаннє: 18.09.19
Повідомлень: 15

2017-01-10 12:44  
Фільм нам сподобався, ходили на прем'єру до кінотеатру. Як завжди, чудова гра самого майстра Тома, а оригінальний сюжет. До цього жодного фільма по книгах Д.Брауна не бачила, але після цього вирішила для початку прочитати його книги, а потім подивитися і інші 2 фільми трилогії)
Uberwinder 
VIP


З нами з: 18.11.16
Востаннє: 19.09.19
Повідомлень: 276

2017-01-17 09:01  
Чудовий динамічний фільм з якісним українським дубляжем. Сюжет чимось нагадав "Код да Вінчі". Деякі сцени відверто злизані з інших, досить старих, фільмів, але загальне враження від перегляду від цього не змінилось. Щира вдячність за роздачу!
Ваш часовий пояс: GMT + 2 Години

Нова тема   Відповісти