Встигнути за Джонсами / Keeping Up with the Joneses (2016) Remux 1080p Ukr/Eng | Sub Ukr/Eng

Нові коментарі

Нова тема   Відповісти
Автор Повідомлення
staf777 
Відео Гуртом - підтримка та поширення
Відео Гуртом - підтримка та поширення


З нами з: 16.11.16
Востаннє: 22.10.17
Повідомлень: 522

2017-01-06 17:14  
Встигнути за Джонсами / Keeping Up with the Joneses (2016) Remux 1080p Ukr/Eng | Sub Ukr/Eng

Встигнути за Джонсами / Keeping Up with the Joneses (2016) Remux 1080p Ukr/Eng | Sub Ukr/Eng
Оригінальний постер

Встигнути за Джонсами / Keeping Up with the Joneses (2016) Remux 1080p Ukr/Eng | Sub Ukr/Eng
Жанр: бойовик, комедія
Країна: США



Кінокомпанія: Fox 2000 Pictures, MacDonald/Parkes Productions
Режисер: Грег Моттола
Актори: Галь Гадот, Айла Фішер, Зак Галіфіанакіс, Джон Хемм, Петтон Освальт, Мерібет Монро, Метт Волш

Сюжет:
Подружня пара з передмістя є втягнутою в міжнародну шпигунську змову, коли виявляє, що їх, здавалося б, ідеальні нові сусіди є урядовими агентами.


Тривалість: 01:46:02
Якість: Remux 1080p
Відео:
кодек:
розмір кадру: 1920x1080
бітрейт: 27,4 Mб/с

Аудіо # 1:
мова: українська
переклад: професійний дубльований
кодек: 5.1
бітрейт: 448 кб/с

Аудіо # 2:
мова: англійська
переклад: оригінал
кодек: -HD MA 7.1
бітрейт: 4309 кб/с

Аудіо # 3:
мова: англійська
переклад: описова
кодек: 5.1
бітрейт: 448 кб/с

Субтитри # 1:
мова: українська
тип: пререндерні
формат: PGS

Субтитри # 2:
мова: англійська
тип: пререндерні
формат: PGS

Субтитри # 3:
мова: англійська
тип: пререндерні
формат: PGS
Info
General
Unique ID : 170930760590717715215480988486928158184 (0x8098112879B0CD628730C54DFB43CDE8)
Complete name : F:\» HD українською » Фільми в HD\Комедія\Keeping Up with the Joneses (2016) [Ukr,Eng sub.Ukr,Eng] Remux 1080p [Hurtom].
Format :
Format version : Version 4 / Version 2
File size : 24.0 GiB
Duration : 1 h 45 min
Overall bit rate mode : Variable
Overall bit rate : 32.7 Mb/s
Movie name : Keeping Up with the Joneses (2016) [Ukr,Eng sub.Ukr,Eng] Remux 1080p [Hurtom]
Encoded date : UTC 2017-03-11 04:47:13
Writing application : mkvmerge v9.8.0 ('Kuglblids') 64bit
Writing library : libebml v1.3.4 + libmatroska v1.4.5
Cover : Yes
Attachments : cover.jpg..jpg / cover

Video
ID : 1
Format : AVC
Format/Info : Advanced Video Codec
Format profile : [email protected]
Format settings, CABAC : Yes
Format settings, ReFrames : 4 frames
Codec ID : V_MPEG4/ISO/AVC
Duration : 1 h 45 min
Bit rate mode : Variable
Bit rate : 27.4 Mb/s
Maximum bit rate : 29.8 Mb/s
Width : 1 920 pixels
Height : 1 080 pixels
Display aspect ratio : 16:9
Frame rate mode : Constant
Frame rate : 23.976 (24000/1001) FPS
Color space : YUV
Chroma subsampling : 4:2:0
Bit depth : 8 bits
Scan type : Progressive
Bits/(Pixel*Frame) : 0.552
Stream size : 20.2 GiB (84%)
Title : Keeping Up with the Joneses (2016) Remux 1080p
Default : Yes
Forced : No

Audio #1
ID : 2
Format : AC-3
Format/Info : Audio Coding 3
Mode extension : CM (complete main)
Format settings, Endianness : Big
Codec ID : A_AC3
Duration : 1 h 45 min
Bit rate mode : Constant
Bit rate : 448 kb/s
Channel(s) : 6 channels
Channel positions : Front: L C R, Side: L R, LFE
Sampling rate : 48.0 kHz
Frame rate : 31.250 FPS (1536 spf)
Bit depth : 16 bits
Compression mode : Lossy
Delay relative to video : -17 ms
Stream size : 338 MiB (1%)
Title : 5.1 @ 448 kbps
Language : Ukrainian
Default : Yes
Forced : Yes

Audio #2
ID : 3
Format :
Format/Info : Digital Theater Systems
Format profile : MA / ES Matrix / Core
Mode : 16
Format settings, Endianness : Big
Codec ID : A_DTS
Duration : 1 h 45 min
Bit rate mode : Variable / Constant / Constant
Bit rate : 4 309 kb/s / 1 509 kb/s / 1 509 kb/s
Channel(s) : 8 channels / 7 channels / 6 channels
Channel positions : Front: L C R, Side: L R, Back: L R, LFE / Front: L C R, Side: L R, Back: C, LFE / Front: L C R, Side: L R, LFE
Sampling rate : 48.0 kHz
Frame rate : 93.750 FPS (512 spf)
Bit depth : 24 bits
Compression mode : Lossless / Lossy / Lossy
Stream size : 3.17 GiB (13%)
Title : Original
Language : English
Default : No
Forced : No

Audio #3
ID : 4
Format : AC-3
Format/Info : Audio Coding 3
Mode extension : CM (complete main)
Format settings, Endianness : Big
Codec ID : A_AC3
Duration : 1 h 45 min
Bit rate mode : Constant
Bit rate : 448 kb/s
Channel(s) : 6 channels
Channel positions : Front: L C R, Side: L R, LFE
Sampling rate : 48.0 kHz
Frame rate : 31.250 FPS (1536 spf)
Bit depth : 16 bits
Compression mode : Lossy
Delay relative to video : -17 ms
Stream size : 338 MiB (1%)
Title : |Descriptive|
Language : English
Default : No
Forced : No

Text #1
ID : 5
Format : PGS
Muxing mode : zlib
Codec ID : S_HDMV/PGS
Codec ID/Info : Picture based subtitle format used on BDs/HD-DVDs
Duration : 1 h 44 min
Bit rate : 31.5 kb/s
Count of elements : 4024
Stream size : 23.5 MiB (0%)
Language : Ukrainian
Default : No
Forced : No

Text #2
ID : 6
Format : PGS
Muxing mode : zlib
Codec ID : S_HDMV/PGS
Codec ID/Info : Picture based subtitle format used on BDs/HD-DVDs
Duration : 1 h 40 min
Bit rate : 24.7 kb/s
Count of elements : 4240
Stream size : 17.8 MiB (0%)
Language : English
Default : No
Forced : No

Text #3
ID : 7
Format : PGS
Muxing mode : zlib
Codec ID : S_HDMV/PGS
Codec ID/Info : Picture based subtitle format used on BDs/HD-DVDs
Duration : 16 s 684 ms
Bit rate : 21.4 kb/s
Count of elements : 10
Stream size : 43.5 KiB (0%)
Language : English
Default : No
Forced : No
Скріншоти




Джерело:
Особиста оцінка: 8 - мені сподобалося
Встигнути за Джонсами / Keeping Up with the Joneses (2016) Remux 1080p Ukr/Eng | Sub Ukr/Eng


Золотий реліз (завантажене не впливає на рейтинг)
 Трекер:    Зареєстрований   

Завантажити / скачати фільм українською



відео для новачків



 Зареєстрований:   2017-03-11 08:26
 Розмір:   24.05 GB 
 Оцінка фільму:   8.5/10 (Голосів: 13)
   
Ігор Вінський 
VIP


З нами з: 17.03.11
Востаннє: 21.10.17
Повідомлень: 364

2017-01-08 21:49  
Ще не дивився цю стрічку, але хочу порадити Вам, коли робите ремукс бажано робити через файл у теці PLAYLIST, тоді зберігається глави чи чаптери як на Blu-ray. От я сьогодні зробив для себе ремукс одного мультфільму, під спойлером унизу медіаінфо показує що є чаптери. Так воно ліпше я думаю.
Загальна інформація
UniqueID/String : 188185632678659584486653204987607954196 (0x8D933C08B62CB2838D3C08393BBAB314)
CompleteName : F:\Диск 19\Ніко. Дильоґія Niko. Dilogy (2008,2012)\Ніко 2 Niko 2 Lentäjäveljekset (2012).
Format :
Format_Version : Version 4 / Version 2
FileSize/String : 11.8 ГіБ
Duration/String : 1 год.
OverallBitRate_Mode/String : Змінний (VBR)
OverallBitRate/String : 22.2 Мбіт/сек
Movie : Ніко 2 / Niko 2: Lentäjäveljekset (2012)
Encoded_Date : UTC 2017-01-08 06:00:18
Encoded_Application/String : mkvmerge v8.3.0 ('Over the Horizon') 64bit
Encoded_Library/String : libebml v1.3.1 + libmatroska v1.4.2

Відео
ID/String : 1
Format : AVC
Format/Info : Advanced Video Codec
Format_Profile : [email protected]
Format_Settings_CABAC/String : Так
Format_Settings_RefFrames/String : 4 кадр(-и,-ів)
Format_Settings_GOP : M=3, N=24
CodecID : V_MPEG4/ISO/AVC
Duration/String : 1 год.
BitRate_Mode/String : Змінний (VBR)
BitRate/String : 21.6 Мбіт/сек
BitRate_Maximum/String : 28.0 Мбіт/сек
Width/String : 1 920 пікс.
Height/String : 1 080 пікс.
DisplayAspectRatio/String : 16:9
FrameRate_Mode/String : Постійний
FrameRate/String : 23.976 (24000/1001) кадр/сек
Standard : NTSC
ColorSpace : YUV
ChromaSubsampling/String : 4:2:0
BitDepth/String : 8 біт
ScanType/String : Прогресивний
Bits-(Pixel*Frame) : 0.434
StreamSize/String : 11.5 ГіБ (97%)
Title : Ніко 2 / Niko 2: Lentäjäveljekset (2012)
Language/String : English
Default/String : Так
Forced/String : Ні
colour_range : Limited
colour_primaries : BT.709
transfer_characteristics : BT.709
matrix_coefficients : BT.709

Аудіо #1
ID/String : 2
Format : AC-3
Format/Info : Audio Coding 3
Format_Settings_ModeExtension : CM (complete main)
Format_Settings_Endianness : Big
CodecID : A_AC3
Duration/String : 1 год.
BitRate_Mode/String : Постійний (CBR)
BitRate/String : 192 Кбіт/сек
Channel(s)/String : 2 канал(-и,-ів)
ChannelPositions : Front: L R
SamplingRate/String : 48.0 кГц
FrameRate/String : 31.250 кадр/сек (1536 spf)
BitDepth/String : 16 біт
Compression_Mode/String : Із втратами
StreamSize/String : 104 МіБ (1%)
Title : Багатоголосий закадровий К1
Language/String : Ukrainian
Default/String : Так
Forced/String : Ні

Аудіо #2
ID/String : 3
Format : AC-3
Format/Info : Audio Coding 3
Format_Settings_ModeExtension : CM (complete main)
Format_Settings_Endianness : Big
CodecID : A_AC3
Duration/String : 1 год.
BitRate_Mode/String : Постійний (CBR)
BitRate/String : 448 Кбіт/сек
Channel(s)/String : 6 канал(-и,-ів)
ChannelPositions : Front: L C R, Side: L R, LFE
SamplingRate/String : 48.0 кГц
FrameRate/String : 31.250 кадр/сек (1536 spf)
BitDepth/String : 16 біт
Compression_Mode/String : Із втратами
StreamSize/String : 244 МіБ (2%)
Language/String : English
Default/String : Ні
Forced/String : Ні

Меню
00:00:00.000 : en:Chapter 1
00:05:57.315 : en:Chapter 2
00:16:19.269 : en:Chapter 3
00:23:55.142 : en:Chapter 4
00:31:49.866 : en:Chapter 5
00:40:38.310 : en:Chapter 6
00:47:13.747 : en:Chapter 7
00:54:04.366 : en:Chapter 8
00:58:33.134 : en:Chapter 9
01:05:04.150 : en:Chapter 10
01:08:02.161 : en:Chapter 11
01:10:53.374 : en:Chapter 12

staf777 
Відео Гуртом - підтримка та поширення
Відео Гуртом - підтримка та поширення


З нами з: 16.11.16
Востаннє: 22.10.17
Повідомлень: 522

2017-01-09 14:44  
Дякую я знаю про цю примочку - алє роблю ріпи під себе а мені чаптери ні к чому то що кому не до сподоби даруйте
staf777 
Відео Гуртом - підтримка та поширення
Відео Гуртом - підтримка та поширення


З нами з: 16.11.16
Востаннє: 22.10.17
Повідомлень: 522

2017-03-11 08:16  
11.03.2017 Роздачу оновлено - Замінив доріжку з 
Uberwinder 
Свій


З нами з: 18.11.16
Востаннє: 21.10.17
Повідомлень: 139

2017-03-11 08:47  
Дякую за роздачу, фільм у цілому непоганий, але сюжет вже оскому набив.
kryk-v.ya. 
Поважний учасник


З нами з: 14.02.14
Востаннє: 22.10.17
Повідомлень: 214

2017-03-14 00:08  
Класний фільм.
me34 
Новенький


З нами з: 26.09.12
Востаннє: 21.10.17
Повідомлень: 16

2017-03-22 01:12  
слабенько, 5 з 10

на комедію не тягне, викликає місцями посмішки, але без реготу

Ваш часовий пояс: GMT + 2 Години

Нова тема   Відповісти