Пастка / Entrapment (1999) 1080p Ukr/Eng | Sub Eng

Нові коментарі

Нова тема   Відповісти
Автор Повідомлення
staf777 
Відео Гуртом - підтримка та поширення
Відео Гуртом - підтримка та поширення


З нами з: 16.11.16
Востаннє: 20.10.17
Повідомлень: 522

2017-01-06 14:28  
Пастка / Entrapment (1999) 1080p Ukr/Eng | Sub Eng

Пастка / Entrapment (1999) 1080p Ukr/Eng | Sub Eng


Жанр: кримінальний, романтичний, трилер, пригодницький
Країна: США, Велика Британія, Німеччина



Кінокомпанія: Twentieth Century Fox Film Corporation, Regency Enterprises, Fountainbridge Films
Режисер: Джон Амієл / Jon Amiel
Актори: Шон Коннері / Sean Connery, Кетрін Зета-Джонс / Catherine Zeta-Jones, Вінг Реймс / Ving Rhames, Вілл Паттон / Will Patton, Маурі Чайкін / Maury Chaykin, Кевін МакНеллі / Kevin McNally, Террі О'Нейл / Terry O'Neill

Сюжет:
Роберт МакДугал, вже немолодий, але ще міцний чоловік імпозантної зовнішності, - видатний злодій міжнародного масштабу. Під час крадіжки полотна Рембрандта доля зводить його із чарівною конкуренткою Вірджинією, теж злодійкою великого таланту. Вона слідчий страхової компанії.
Ще жодного разу МакДугала не вдавалося спіймати на гарячому. Вірджінія сподівається, що їй вдасться увійти до нього в довіру і заманити у пастку. Обидва вони - люди неординарні - починають працювати разом. Крадуть старовинну китайську золоту маску, а потім планують крадіжку на міленіум в одній з башт хмарочосу Петронас Твін Тауерс в Куала-Лумпур шляхом комп'ютерного переказу на свій рахунок з різних корпоративних рахунків 8 млрд. доларів.
Однак трапляється непередбачене: Роберт і Вірджинія відчувають один до одного ніжні почуття, між ними починається роман. Це доставляє масу незручностей і їм самим, і спецслужбам різних країн...


Тривалість: 01:52:56
Якість:
Відео:
кодек:
розмір кадру: 1920x812
бітрейт: 10500 кб/с

Аудіо # 1:
мова: українська
переклад: багатоголосий закадровий
кодек: 5.1
бітрейт: 448 кб/с

Аудіо # 2:
мова: англійська
переклад: оригінал
кодек: 5.1
бітрейт: 1509 кб/с

Аудіо # 3:
мова: англійська
переклад: |Commentary by director Jon Amiel|
кодек: 2.0
бітрейт: 224 кб/с

Субтитри:
мова: англійська
тип: програмні (м'які)
формат: *.srt

Субтитри:
мова: англійська
тип: програмні (м'які)[коментарі]
формат: *.srt
Info
General
Unique ID : 240331870698709524626746996731521771250 (0xB4CE3C112A5D967CBF2DE517C5C3A6F2)
Complete name : E:\HDCLUB\ Entrapment (1999) [Ukr,Eng sub.Eng] 1080p [Hurtom].
Format :
Format version : Version 4 / Version 2
File size : 9.89 GiB
Duration : 1h 52mn
Overall bit rate : 12.5 Mbps
Movie name : Entrapment (1999) [Ukr,Eng sub.Eng] 1080p [Hurtom]
Encoded date : UTC 2017-01-06 10:38:12
Writing application : mkvmerge v9.5.0 ('Quiet Fire') 64bit
Writing library : libebml v1.3.4 + libmatroska v1.4.5
Attachements : cover.jpg

Video
ID : 1
Format : AVC
Format/Info : Advanced Video Codec
Format profile : [email protected]
Format settings, CABAC : Yes
Format settings, ReFrames : 5 frames
Codec ID : V_MPEG4/ISO/AVC
Duration : 1h 52mn
Bit rate : 10.5 Mbps
Width : 1 920 pixels
Height : 812 pixels
Display aspect ratio : 2.35:1
Frame rate mode : Constant
Frame rate : 23.976 (23976/1000) fps
Color space : YUV
Chroma subsampling : 4:2:0
Bit depth : 8 bits
Scan type : Progressive
Bits/(Pixel*Frame) : 0.281
Stream size : 8.28 GiB (84%)
Title : Entrapment (1999) 1080p
Writing library : core 148 r2665+53 6629127 t_mod_Custom [[email protected] X86_64]
Encoding settings : cabac=1 / ref=5 / deblock=1:-3:-3 / analyse=0x3:0x133 / me=umh / subme=10 / psy=1 / fade_compensate=0.00 / psy_rd=1.10:0.05 / mixed_ref=1 / me_range=24 / chroma_me=1 / trellis=2 / 8x8dct=1 / cqm=0 / deadzone=21,11 / fast_pskip=0 / chroma_qp_offset=-3 / threads=6 / lookahead_threads=1 / sliced_threads=0 / nr=0 / decimate=1 / interlaced=0 / bluray_compat=0 / constrained_intra=0 / fgo=0 / bframes=9 / b_pyramid=2 / b_adapt=2 / b_bias=0 / direct=3 / weightb=1 / open_gop=0 / weightp=2 / keyint=250 / keyint_min=23 / scenecut=40 / intra_refresh=0 / rc=2pass / mbtree=0 / bitrate=10500 / ratetol=1.0 / qcomp=0.65 / qpmin=0:0:0 / qpmax=69:69:69 / qpstep=4 / cplxblur=20.0 / qblur=0.5 / ip_ratio=1.30 / pb_ratio=1.20 / aq=1:0.80 / aq-sensitivity=10.00 / aq-factor=1.00:1.00:1.00 / aq2=1:0.75 / aq2-sensitivity=15.00 / aq2-factor=1.00:1.00:1.00 / aq3=1:[0.70:0.70]:[0.70:0.70]:[0.70:0.70]:[0.70:0.70] / aq3-sensitivity=10.00 / aq3-factor=[1.00:1.00]:[1.00:1.00]:[1.00:1.00] / aq3-boundary=192:64:24
Language : English
Default : Yes
Forced : No
Color range : Limited
Matrix coefficients : BT.709

Audio #1
ID : 2
Format : AC-3
Format/Info : Audio Coding 3
Mode extension : CM (complete main)
Format settings, Endianness : Big
Codec ID : A_AC3
Duration : 1h 52mn
Bit rate mode : Constant
Bit rate : 448 Kbps
Channel(s) : 6 channels
Channel positions : Front: L C R, Side: L R, LFE
Sampling rate : 48.0 KHz
Frame rate : 31.250 fps (1536 spf)
Compression mode : Lossy
Stream size : 362 MiB (4%)
Title : UA-MVO-ICTV
Language : Ukrainian
Default : Yes
Forced : Yes

Audio #2
ID : 3
Format :
Format/Info : Digital Theater Systems
Mode : 16
Format settings, Endianness : Big
Codec ID : A_DTS
Duration : 1h 52mn
Bit rate mode : Constant
Bit rate : 1 509 Kbps
Channel(s) : 6 channels
Channel positions : Front: L C R, Side: L R, LFE
Sampling rate : 48.0 KHz
Frame rate : 93.750 fps (512 spf)
Bit depth : 24 bits
Compression mode : Lossy
Stream size : 1.19 GiB (12%)
Title : Original
Language : English
Default : No
Forced : No

Audio #3
ID : 4
Format :
Format/Info : Advanced Audio Codec
Format profile : LC
Codec ID : A_AAC
Duration : 1h 52mn
Bit rate : 80.1 Kbps
Channel(s) : 2 channels
Channel positions : Front: L R
Sampling rate : 48.0 KHz
Frame rate : 46.875 fps (1024 spf)
Compression mode : Lossy
Delay relative to video : 9ms
Stream size : 64.7 MiB (1%)
Title : Commentary by director Jon Amiel
Language : English
Default : No
Forced : No

Text #1
ID : 5
Format : UTF-8
Codec ID : S_TEXT/UTF8
Codec ID/Info : UTF-8 Plain Text
Duration : 1h 45mn
Bit rate : 43 bps
Count of elements : 955
Stream size : 33.4 KiB (0%)
Language : English
Default : No
Forced : No

Text #2
ID : 6
Format : UTF-8
Codec ID : S_TEXT/UTF8
Codec ID/Info : UTF-8 Plain Text
Duration : 1h 47mn
Bit rate : 65 bps
Count of elements : 1035
Stream size : 51.4 KiB (0%)
Title : Commentary
Language : English
Default : No
Forced : No
Скріншоти



Джерело: &
Подяки: Lan - зведення звуку, Hentaihunter - запис з ТБ, Mister rock - постер
Особиста оцінка: 0 - не дивився


Срібний реліз (на рейтинг впливає 50% завантаженого)
 Трекер:    Зареєстрований   

Завантажити / скачати фільм українською



відео для новачків



 Зареєстрований:   2017-01-06 14:28
 Розмір:   9.89 GB 
 Оцінка фільму:   10/10 (Голосів: 4)
   
Інші релізи
   Пастка / Entrapment (1999) Ukr/Eng Arsenfpu  3 / 0   1.77 GB   2017-08-12 17:41 
   Пастка / Entrapment (1999) AVC Ukr/Eng | Sub Eng Загора  0 / 0   2.45 GB   2016-02-23 20:01 
   Пастка / Entrapment (1999) 720p Ukr/Eng | Sub Eng Загора  4 / 0   4.78 GB   2016-02-23 20:00 
   Пастка / Entrapment (1999) Ukr/Eng | Sub Eng Lan  1 / 0   2.18 GB   2011-06-13 12:56 
Ваш часовий пояс: GMT + 2 Години

Нова тема   Відповісти