Рик Лева / Liaon in the Roar (1956)

Нові коментарі

Нова тема   Відповісти
Останній раз роздавалося dima_2004 (2017-02-12)
Автор Повідомлення
dima_2004 
Частий відвідувач


З нами з: 30.05.16
Востаннє: 08.10.17
Повідомлень: 33

2017-01-06 12:03  
Рик Лева / Lion in the Roar (1956)

Рик Лева / Liaon in the Roar (1956)


Жанр: анімація, сімейний
Країна: США



Режисер: Сеймур Кнейтель (Seymour Kneitel)
Сюжет:
Сюжет нагадує «Короля Лева», але повністю відрізняється в усьому іншому. В африканських джунглях король Луї розповідає своєму синові, майбутньому королеві Луї, що коли-небудь він успадкує трон Короля джунглів, тому повинен поводитись відповідним чином. Але поведінка молодого Луї, його слабенький голос і маленький зріст не справляють жодного враження на мешканців джунглів. Вони сміються з нього. Та всі тікають, коли з'являється величезна горила і нападає на Луї-старшого. Чи зможе малий Луї врятувати ситуацію?


Тривалість: 0:05:37
Якість:
Відео:
кодек: MPEG-2
розмір кадру: 720×576
бітрейт: 3 352 кб/с

Аудіо:
мова: українська
переклад: професійний дубльований
кодек: MP2
бітрейт: 128 кб/с
Звіт з МедіаІнфо
General
ID : 1 (0x1)
Complete name : D:\_Мультики_\Liaon in the Roar (1956) IPTVRemux [2017.01.01] [QTV].ts
Format : MPEG-TS
File size : 147 MiB
Duration : 5mn 37s
Overall bit rate mode : Variable
Overall bit rate : 3 662 Kbps

Video
ID : 67 (0x43)
Menu ID : 1 (0x1)
Format : MPEG Video
Format version : Version 2
Format profile : [email protected]
Format settings, BVOP : Yes
Format settings, Matrix : Custom
Format settings, GOP : Variable
Format settings, picture struc : Frame
Codec ID : 2
Duration : 5mn 37s
Bit rate mode : Variable
Bit rate : 3 352 Kbps
Maximum bit rate : 15.0 Mbps
Width : 720 pixels
Height : 576 pixels
Display aspect ratio : 16:9
Frame rate : 25.000 fps
Standard : PAL
Color space : YUV
Chroma subsampling : 4:2:0
Bit depth : 8 bits
Scan type : Interlaced
Scan order : Top Field First
Compression mode : Lossy
Bits/(Pixel*Frame) : 0.323
Time code of first frame : 00:00:00:00
Time code source : Group of pictures header
Stream size : 135 MiB (92%)

Audio
ID : 68 (0x44)
Menu ID : 1 (0x1)
Format : MPEG Audio
Format version : Version 1
Format profile : Layer 2
Codec ID : 3
Duration : 5mn 37s
Bit rate mode : Constant
Bit rate : 128 Kbps
Channel(s) : 2 channels
Sampling rate : 48.0 KHz
Compression mode : Lossy
Delay relative to video : 19ms
Stream size : 5.15 MiB (3%)
Language : English
Переклад і озвучення виконано: студією "Пілот" на замовлення телеканалу
Відео на YouTube
Скріншоти





Джерело: Запис з ТБ
Особиста оцінка: 10 - варте для перегляду


Срібний реліз (на рейтинг впливає 50% завантаженого)
 Трекер:    Зареєстрований   

Завантажити / скачати фільм українською



відео для новачків



 Зареєстрований:   2017-01-18 16:45
 Розмір:   614 MB 
 Оцінка фільму:   10/10 (Голосів: 2)
   
11FrYkT 
Модератор відео


З нами з: 20.02.11
Востаннє: 19.10.17
Повідомлень: 3968

2017-01-08 11:19  
dima_2004
це не якість
Цитата:
кодек: MPEG-1
розмір кадру: 720х576
бітрейт: кб/с

бітрейт

скріншоти не відповідають вказаному розміру

Цитата:
Останній раз роздавалося (Ніколи)

Детальний список

станьте на роздачу

dima_2004 
Частий відвідувач


З нами з: 30.05.16
Востаннє: 08.10.17
Повідомлень: 33

2017-01-08 15:41  
11FrYkT
Виправив

11FrYkT 
Модератор відео


З нами з: 20.02.11
Востаннє: 19.10.17
Повідомлень: 3968

2017-01-08 23:58  
dima_2004 написано:
бітрейт: 15128 кб/с

щось я сумніваюся, покажіть будь ласка звіт Медіаінфо, також скріншоти у Вас всерівно не йдуть

Ваш часовий пояс: GMT + 2 Години

Нова тема   Відповісти