Завантажити та скачати торренти українською


Дійсно, моя романтична комедія юності не вдалась! Знову! / Yahari Ore no Seishun Love Come wa Machigatteiru. Zoku! (OreGairu 2) (OVA) (2016) 1080p Jap | sub Ukr

Нові коментарі

Нова тема   Відповісти
Автор Повідомлення
ihabi 
Поважний учасник


З нами з: 01.03.13
Востаннє: 21.02.17
Повідомлень: 215

2017-01-05 23:01  
Дійсно, моя романтична комедія юності не вдалась! Знову! / Yahari Ore no Seishun Love Come wa Machigatteiru. Zoku! (OreGairu 2) (OVA) (2016) 1080p Jap | sub Ukr

Дійсно, моя романтична комедія юності не вдалась! Знову! / Yahari Ore no Seishun Love Come wa Machigatteiru. Zoku! (OreGairu 2) (OVA) (2016) 1080p Jap | sub Ukr


Жанр: комедія, повсякденність
Країна: Японія



Кінокомпанія: Feel Animayion Studio
Режисер: Оікава Кей
Актори: Еґучі Такуя, Нао Тояма, Хяаямі Саорі, Мікако Комацу

Сюжет:
Ова другого сезону. Іроха просить допомоги у Хікіґаї, але це виявилося побачення. А ви думаєте, що вона просто так це учинила? Це ж Іроха!


Тривалість: 00:23:41
Якість:
Відео:
кодек:
розмір кадру: 1920 х 1080
бітрейт: 6 755 кб/с

Аудіо:
мова: японська
переклад: оригінал
кодек: FLAC 2.0
бітрейт: 676 кб/с

Субтитри:
мова: українська
тип: пререндерні
формат: *.ass

Переклад виконано:
Переклад: Gamma
Редакція: Urajimir
Оформлення: ihabi
Постер: ihabi

Джерело: MelodicVoiceStudio
Info
Video
ID : 1
Format : AVC
Format/Info : Advanced Video Codec
Format profile : High 10@L5.1
Format settings, CABAC : Yes
Format settings, ReFrames : 10 frames
Codec ID : V_MPEG4/ISO/AVC
Duration : 23 min 41 s
Bit rate : 6 755 kb/s
Width : 1 920 pixels
Height : 1 080 pixels
Display aspect ratio : 16:9
Frame rate mode : Constant
Frame rate : 23.976 (24000/1001) FPS
Color space : YUV
Chroma subsampling : 4:2:0
Bit depth : 10 bits
Scan type : Progressive
Bits/(Pixel*Frame) : 0.136
Stream size : 1.12 GiB (90%)
Writing library : core 133 r2334 a3ac64b
Encoding settings : cabac=1 / ref=10 / deblock=1:1:0 / analyse=0x3:0x133 / me=umh / subme=10 / psy=1 / psy_rd=0.80:0.00 / mixed_ref=1 / me_range=24 / chroma_me=1 / trellis=2 / 8x8dct=1 / cqm=0 / deadzone=21,11 / fast_pskip=0 / chroma_qp_offset=-2 / threads=12 / lookahead_threads=2 / sliced_threads=0 / nr=0 / decimate=1 / interlaced=0 / bluray_compat=0 / constrained_intra=0 / bframes=8 / b_pyramid=2 / b_adapt=2 / b_bias=0 / direct=3 / weightb=1 / open_gop=0 / weightp=2 / keyint=250 / keyint_min=25 / scenecut=40 / intra_refresh=0 / rc_lookahead=60 / rc=crf / mbtree=1 / crf=15.0 / qcomp=0.60 / qpmin=0 / qpmax=69 / qpstep=4 / vbv_maxrate=300000 / vbv_bufsize=300000 / crf_max=0.0 / nal_hrd=none / ip_ratio=1.40 / aq=1:1.10
Language : English
Default : Yes
Forced : No
Color range : Limited
Color primaries : BT.709
Transfer characteristics : BT.709
Matrix coefficients : BT.709

Audio
ID : 2
Format : FLAC
Format/Info : Free Lossless Audio Codec
Codec ID : A_FLAC
Duration : 23 min 41 s
Bit rate mode : Variable
Bit rate : 676 kb/s
Channel(s) : 2 channels
Channel positions : Front: L R
Sampling rate : 48.0 kHz
Frame rate : 11.719 FPS (4096 spf)
Bit depth : 16 bits
Stream size : 115 MiB (9%)
Writing library : libFLAC 1.3.0 (UTC 2013-05-26)
Default : Yes
Forced : No

Text
ID : 3
Format : ASS
Codec ID : S_TEXT/ASS
Codec ID/Info : Advanced Sub Station Alpha
Duration : 23 min 37 s
Bit rate : 746 b/s
Count of elements : 825
Compression mode : Lossless
Stream size : 129 KiB (0%)
Title : Gamma
Language : Ukrainian
Default : Yes
Forced : Yes

Menu
00:00:00.000 : en:Prologue
00:00:52.052 : en:Opening
00:02:22.142 : en:Part A
00:15:37.144 : en:Break
00:15:42.149 : en:Part B
00:22:11.163 : en:Ending
00:23:40.085 : en:Preview
Скріншоти





Це ова другого сезону. Причина окремого релізу - якість 1080р та
Озвучення другий сезон
Озвучення перший сезон
Другий сезон
Перший сезон

Особиста оцінка: 8 - мені сподобалося


Золотий реліз (завантажене не впливає на рейтинг)
 Трекер:    Зареєстрований   

Завантажити / скачати аніме українською



відео для новачків



 Зареєстрований:   2017-01-05 23:01
 Розмір:   1.24 GB 
 Оцінка аніме:   10/10 (Голосів: 1)
   
11FrYkT 
Модератор відео


З нами з: 20.02.11
Востаннє: 22.02.17
Повідомлень: 3414

2017-01-06 10:06  
ihabi, надалі вказуйте будь ласка кількість каналів в аудідоріжці
Ваш часовий пояс: GMT + 2 Години

Нова тема   Відповісти