Cтепан Гіга - Вулиця Наталі. Троянди для тебе. (2002) | Pop

Нові коментарі

Нова тема   Відповісти
Останній раз роздавалося michalych (2017-10-21)
Автор Повідомлення
michalych 
Частий відвідувач


З нами з: 14.09.10
Востаннє: 21.10.17
Повідомлень: 35

2017-01-05 16:42  
Cтепан Гіга - Вулиця Наталі. Троянди для тебе. (2002) | Pop

Cтепан Гіга - Вулиця Наталі. Троянди для тебе. (2002) | Pop


Стиль: Поп-музика
Країна, місто: Україна, Калуш
Видавець: Студія "6 секунд"
Виконавці: Степан Гіга і друзі

Тривалість: 1 год 13 хв + 1 год 00 хв
Якість:

Відео:
кодек:
розмір кадру: 720х448
бітрейт: 4000 kb/s
Аудіо:
мова: українська
кодек: 2ch
бітрейт: 80 kb/s
Звіт медіаінфо
Частина 1

General
Complete name : D:\Downloads\Music\Video\Концерти\Степан Гіга.Концерт в Калуші.Частина1.()(2004).mp4
Format : MPEG-4
Format profile : Base Media
Codec ID : isom (isom/mp42)
File size : 2.00 GiB
Duration : 1 h 13 min
Overall bit rate mode : Variable
Overall bit rate : 3 918 kb/s
Encoded date : UTC 2006-02-06 18:55:52
Tagged date : UTC 2006-02-06 18:55:52

Video
ID : 1
Format : MPEG-4 Visual
Format profile : Advanced Simple@L5
Format settings, BVOP : Yes
Format settings, QPel : No
Format settings, GMC : No warppoints
Format settings, Matrix : Default (H.263)
Codec ID : 20
Duration : 1 h 13 min
Source duration : 1 h 13 min
Bit rate : 3 673 kb/s
Nominal bit rate : 3 869 kb/s
Width : 720 pixels
Height : 448 pixels
Display aspect ratio : 16:10
Frame rate mode : Constant
Frame rate : 25.000 FPS
Color space : YUV
Chroma subsampling : 4:2:0
Bit depth : 8 bits
Scan type : Progressive
Compression mode : Lossy
Bits/(Pixel*Frame) : 0.456
Stream size : 1.88 GiB (94%)
Source stream size : 1.96 GiB (98%)
Writing library : em4v 4.1.6.5
Language : English
Encoded date : UTC 2006-02-06 18:55:52
Tagged date : UTC 2006-02-06 18:55:52
mdhd_Duration : 4391383

Audio
ID : 2
Format :
Format/Info : Advanced Audio Codec
Format profile : LC
Codec ID : 40
Duration : 1 h 13 min
Source duration : 1 h 13 min
Bit rate mode : Variable
Bit rate : 80.1 kb/s
Channel(s) : 2 channels
Channel positions : Front: L R
Sampling rate : 44.1 kHz
Frame rate : 43.066 FPS (1024 spf)
Compression mode : Lossy
Stream size : 41.9 MiB (2%)
Source stream size : 41.9 MiB (2%)
Language : English
Encoded date : UTC 2006-02-06 18:55:52
Tagged date : UTC 2006-02-06 18:55:52
mdhd_Duration : 4391381

Menu
00:00:00.000 : Раздел 1
00:03:22.000 : Раздел 2
00:07:30.400 : Раздел 3
00:13:35.500 : Раздел 4
00:19:39.100 : Раздел 5
00:23:52.300 : Раздел 6
Частина 2

General
Complete name : D:\Downloads\Music\Video\Концерти\Степан Гіга.Концерт в Калуші.Частина2.()(2004).mp4
Format : MPEG-4
Format profile : Base Media
Codec ID : isom (isom/mp42)
File size : 1.69 GiB
Duration : 1 h 0 min
Overall bit rate mode : Variable
Overall bit rate : 4 010 kb/s
Encoded date : UTC 2006-02-06 16:10:34
Tagged date : UTC 2006-02-06 16:10:34

Video
ID : 1
Format : MPEG-4 Visual
Format profile : Advanced Simple@L5
Format settings, BVOP : Yes
Format settings, QPel : No
Format settings, GMC : No warppoints
Format settings, Matrix : Default (H.263)
Codec ID : 20
Duration : 1 h 0 min
Source duration : 1 h 0 min
Bit rate : 3 762 kb/s
Nominal bit rate : 4 000 kb/s
Width : 720 pixels
Height : 448 pixels
Display aspect ratio : 16:10
Frame rate mode : Constant
Frame rate : 25.000 FPS
Color space : YUV
Chroma subsampling : 4:2:0
Bit depth : 8 bits
Scan type : Progressive
Compression mode : Lossy
Bits/(Pixel*Frame) : 0.467
Stream size : 1.59 GiB (94%)
Source stream size : 1.66 GiB (98%)
Writing library : em4v 4.1.6.5
Language : English
Encoded date : UTC 2006-02-06 16:10:34
Tagged date : UTC 2006-02-06 16:10:34
mdhd_Duration : 3630185

Audio
ID : 2
Format :
Format/Info : Advanced Audio Codec
Format profile : LC
Codec ID : 40
Duration : 1 h 0 min
Source duration : 1 h 0 min
Bit rate mode : Variable
Bit rate : 80.1 kb/s
Channel(s) : 2 channels
Channel positions : Front: L R
Sampling rate : 44.1 kHz
Frame rate : 43.066 FPS (1024 spf)
Compression mode : Lossy
Stream size : 34.7 MiB (2%)
Source stream size : 34.7 MiB (2%)
Language : English
Encoded date : UTC 2006-02-06 16:10:34
Tagged date : UTC 2006-02-06 16:10:34
mdhd_Duration : 3630185

Menu
00:00:00.000 : Раздел 1
00:03:03.440 : Раздел 2
00:07:01.000 : Раздел 3
00:13:05.480 : Раздел 4
00:16:46.960 : Раздел 5
00:21:08.080 : Раздел 6
Про концерт

Інформація з каталогу:
На сьогоднішній день Степан Гіга видав лише два офіційних альбоми. Але обидва вони набули чималої популярності серед прихильників української естради – втім, про це ми вже говорили раніше. Отже, можна сподіватися, що і відео версії обох альбомів теж викличуть живий інтерес у шанувальників. Варто зазначити, що цей подвійний DVD-диск не містить кліпів на пісні С. Гіги. Ви побачите тут, власне, живий виступ артиста на відкритій площадці, просто неба. Ніяких зайвих прикрас, ніяких технічних фокусів – все справжнє. Все просто – живий спів, музика, повітря, енергія спілкування між співаком та аудиторією. Улюблені пісні – тепер не тільки для вух, а і для очей.
Треклист

Частина 1. Вулиця Наталі
1.Молитва
2.Розпинають Христа
3.У Райськім Саду
4.Мій оберіг
5.Щира Пісня
6.Ти не повірила
7.Пробач
8.Біла вуаль
9.Остання ніч
10.Наталі
11.Цей сон
Перерва: Друзі мої
12.Квітослава - Забудь мене
13.Зоряна Юдін - Знаю, ми різні
14.Степан Гіга-мол. - Я встигаю бути всюди
15.Василь Мельникович - Чий то кінь стоїть
Частина 2.Троянди до тебе
1.Гуцульське весілля
2.Королева
3.Любов, любов
4.Сон
5.А любов
6.Троянди для тебе
7.Ворожи-не ворожи
8.Чорні троянди
9.Жінка в 30
10.Третій тост
11.Артист
Скріншоти






Джерело: власний ріп
Особиста оцінка: 10 - без зайвих вагань рекомендую всім!


Золотий реліз (завантажене не впливає на рейтинг)
 Трекер:    Зареєстрований   

Завантажити / скачати кліп українською



відео для новачків



 Зареєстрований:   2017-01-05 16:42
 Розмір:   3.7 GB 
 Оцінка кліпу:   10/10 (Голосів: 1)
   
sonjawnuk2 
Поважний учасник


З нами з: 05.04.11
Востаннє: 11.09.17
Повідомлень: 196

2017-01-05 21:13  
Степан Гіга випустив флешку на два гіга Wide grin
11FrYkT 
Модератор відео


З нами з: 20.02.11
Востаннє: 21.10.17
Повідомлень: 3976

2017-01-05 21:17  
michalych , подивіться оформлення у сусідніх темах і виправте Вашу
zipertrance 
Новенький


З нами з: 03.11.12
Востаннє: 21.10.17
Повідомлень: 5

2017-01-06 00:00  
Треклист можна??
michalych 
Частий відвідувач


З нами з: 14.09.10
Востаннє: 21.10.17
Повідомлень: 35

2017-01-06 10:21  
Додав список пісень. Я не шанувальник і не знавець творчості шановного С. Гіги, тому прошу фахівців його уточнити. Ріп з цього диска зробив десь в році 2004-2005, диск мені позичив товариш зі студії. Коштував він тоді якісь фантастичні для Калуша гроші. Це я до того - може в когось знайдеться оригінал?
Ваш часовий пояс: GMT + 2 Години

Нова тема   Відповісти