Армія одинака [Театральна версія] / Joshua Tree [Theatrical Cut] (1993) 720p Ukr/Eng | Sub Eng

Нові коментарі

Нова тема   Відповісти
Останній раз роздавалося staf777 (2017-10-20)
Автор Повідомлення
staf777 
Відео Гуртом - підтримка та поширення
Відео Гуртом - підтримка та поширення


З нами з: 16.11.16
Востаннє: 20.10.17
Повідомлень: 522

2017-01-05 13:14  
Армія одинака [Театральна версія] / Joshua Tree [Theatrical Cut] (1993) 720p Ukr/Eng | Sub Eng

Армія одинака [Театральна версія] / Joshua Tree [Theatrical Cut] (1993) 720p Ukr/Eng | Sub Eng


Жанр: бойовик, драма, трилер, пригодницький
Країна: США



Кінокомпанія: Epic Productions, Horned Toad Productions, Stone Group Pictures, Vision International, Zilex N.V.
Режисер: Вік Армстронг
Актори: Дольф Лундгрен, Джордж Сіґал, Крістіан Альфонсо, Джеффрі Л'юіс, Бо Старр, Мішель Філліпс, Метт Беттеґлія, Берт Ремсен, Майкл Пол Чан, Ханді Александр

Сюжет:
Автогонщика Сенті обвинувачують у вбивстві поліцейського. Це справа рук продажного копа Северенса, що працює на мафію. Сенті одержав серйозне поранення, але вижив. Його засудили на довічне ув’язнення. Охоронці повинні були застрелити його нібито при спробі до втечі, але йому вдалося сховатися.
Рятуючись від переслідувачів, він бере в заручниці красуню, не підозрюючи, що вона - помічник шерифа. Ріта - дівчина не із слабких. Вона робить спробу втекти, але їй це не вдається. Сенті сам відпускає її, коли добирається до ранчо свого ворога. Але тут вже Ріта вирішує докопатися до суті того, що відбувається.


Тривалість: 01:42:12
Якість:
Відео:
кодек:
розмір кадру: 1280x542
бітрейт: 7607 кб/с

Аудіо # 1:
мова: українська
переклад: двоголосий закадровий
кодек: 2.0
бітрейт: 192 кб/с

Аудіо # 2:
мова: англійська
переклад: оригінал
кодек: 5.1
бітрейт: 1509 кб/с

Субтитри # 1:
мова: англійська
тип: програмні (м'які)
формат: *.srt

Субтитри # 2 [SDH]:
мова: англійська
тип: програмні (м'які)
формат: *.srt
Info
General
Unique ID : 189718536625227328219585590308800438372 (0x8EBA7608A14F8EA3B82013381E822064)
Complete name : E:\HDCLUB\Joshua Tree [Theatrical Cut] (1993) [Ukr,Eng sub.Eng] 720p [Hurtom].
Format :
Format version : Version 4 / Version 2
File size : 6.64 GiB
Duration : 1h 42mn
Overall bit rate : 9 305 Kbps
Movie name : Joshua Tree [Theatrical Cut] (1993) [Ukr,Eng sub.Eng] 720p [Hurtom]
Encoded date : UTC 2017-01-05 09:42:04
Writing application : mkvmerge v9.5.0 ('Quiet Fire') 64bit
Writing library : libebml v1.3.4 + libmatroska v1.4.5
Attachements : cover.jpg

Video
ID : 1
Format : AVC
Format/Info : Advanced Video Codec
Format profile : [email protected]
Format settings, CABAC : Yes
Format settings, ReFrames : 12 frames
Codec ID : V_MPEG4/ISO/AVC
Duration : 1h 42mn
Bit rate : 7 607 Kbps
Width : 1 280 pixels
Height : 542 pixels
Display aspect ratio : 2.35:1
Frame rate mode : Constant
Frame rate : 23.976 (23976/1000) fps
Color space : YUV
Chroma subsampling : 4:2:0
Bit depth : 8 bits
Scan type : Progressive
Bits/(Pixel*Frame) : 0.457
Stream size : 5.43 GiB (82%)
Title : Joshua Tree [Theatrical Cut] (1993) 720p
Writing library : core 148 r2744+55 950084e t_mod_Custom [[email protected] X86_64]
Encoding settings : cabac=1 / ref=12 / deblock=1:-3:-3 / analyse=0x3:0x133 / me=umh / subme=10 / psy=1 / fade_compensate=0.00 / psy_rd=1.00:0.05 / mixed_ref=1 / me_range=32 / chroma_me=1 / trellis=2 / 8x8dct=1 / cqm=0 / deadzone=21,11 / fast_pskip=0 / chroma_qp_offset=-3 / threads=6 / lookahead_threads=1 / sliced_threads=0 / nr=0 / decimate=1 / interlaced=0 / bluray_compat=0 / constrained_intra=0 / fgo=0 / bframes=8 / b_pyramid=2 / b_adapt=2 / b_bias=0 / direct=3 / weightb=1 / open_gop=0 / weightp=2 / keyint=250 / keyint_min=23 / scenecut=40 / intra_refresh=0 / rc_lookahead=60 / rc=crf / mbtree=0 / crf=17.5000 / qcomp=0.60 / qpmin=0:0:0 / qpmax=69:69:69 / qpstep=4 / vbv_maxrate=62500 / vbv_bufsize=78125 / crf_max=0.0 / nal_hrd=none / filler=0 / ip_ratio=1.40 / pb_ratio=1.30 / aq=1:0.65 / aq-sensitivity=10.00 / aq-factor=1.00:1.00:1.00 / aq2=1:0.60 / aq2-sensitivity=15.00 / aq2-factor=1.00:1.00:1.00 / aq3=1:[0.55:0.55]:[0.55:0.55]:[0.55:0.55]:[0.55:0.55] / aq3-sensitivity=10.00 / aq3-factor=[1.00:1.00]:[1.00:1.00]:[1.00:1.00] / aq3-boundary=192:64:24
Language : English
Default : Yes
Forced : No
Color range : Limited
Color primaries : BT.709
Transfer characteristics : BT.709
Matrix coefficients : BT.709

Audio #1
ID : 2
Format : AC-3
Format/Info : Audio Coding 3
Mode extension : CM (complete main)
Format settings, Endianness : Big
Codec ID : A_AC3
Duration : 1h 42mn
Bit rate mode : Constant
Bit rate : 192 Kbps
Channel(s) : 2 channels
Channel positions : Front: L R
Sampling rate : 48.0 KHz
Frame rate : 31.250 fps (1536 spf)
Compression mode : Lossy
Stream size : 140 MiB (2%)
Title : UA-DVO- 2+2
Language : Ukrainian
Default : Yes
Forced : Yes

Audio #2
ID : 3
Format :
Format/Info : Digital Theater Systems
Mode : 16
Format settings, Endianness : Big
Codec ID : A_DTS
Duration : 1h 42mn
Bit rate mode : Constant
Bit rate : 1 509 Kbps
Channel(s) : 6 channels
Channel positions : Front: L C R, Side: L R, LFE
Sampling rate : 48.0 KHz
Frame rate : 93.750 fps (512 spf)
Bit depth : 24 bits
Compression mode : Lossy
Stream size : 1.08 GiB (16%)
Title : ORIGINAL
Language : English
Default : No
Forced : No

Text #1
ID : 4
Format : UTF-8
Codec ID : S_TEXT/UTF8
Codec ID/Info : UTF-8 Plain Text
Duration : 1h 35mn
Bit rate : 40 bps
Count of elements : 1034
Stream size : 28.2 KiB (0%)
Language : English
Default : No
Forced : No

Text #2
ID : 5
Format : UTF-8
Codec ID : S_TEXT/UTF8
Codec ID/Info : UTF-8 Plain Text
Duration : 1h 35mn
Bit rate : 37 bps
Count of elements : 977
Stream size : 26.5 KiB (0%)
Title : SDH
Language : English
Default : No
Forced : No
Скріншоти



Джерело: &
Особиста оцінка: 8 - мені сподобалося


Срібний реліз (на рейтинг впливає 50% завантаженого)
 Трекер:    Зареєстрований   

Завантажити / скачати фільм українською



відео для новачків



 Зареєстрований:   2017-01-05 13:14
 Розмір:   6.64 GB 
 Оцінка фільму:   10/10 (Голосів: 2)
   
Ваш часовий пояс: GMT + 2 Години

Нова тема   Відповісти