Незабутнє / Unforgettable (1996) 720p Ukr/Eng | Sub Eng

Нові коментарі

Нова тема   Відповісти
Останній раз роздавалося ЮлькаБурулька (2017-12-17)
Автор Повідомлення
staf777 
Відео Гуртом - підтримка та поширення
Відео Гуртом - підтримка та поширення


З нами з: 16.11.16
Востаннє: 06.11.17
Повідомлень: 522

2017-01-05 11:24  
Незабутнє / Unforgettable (1996) 720p Ukr/Eng | Sub Eng

Незабутнє / Unforgettable (1996) 720p Ukr/Eng | Sub Eng


Жанр: фантастика, трилер, драма, детектив
Країна: США



Кінокомпанія: Metro-Goldwyn-Mayer (MGM)
Режисер: Джон Дал
Актори: Рей Ліотта, Лінда Фіорентіно, Пітер Койот, Крістофер Мк.Дональд, Кім Кетрел

Сюжет:
Дружину судмедексперта Девіда Крейна було по звірячому вбито, а сам Девід в стані алкогольного сп'яніння знаходився поруч, де його й затримала поліція. Через відсутність доказів проти нього, суд зняв з Девіда звинувачення у вбивстві, але позбавив його батьківських прав.

Випадково почувши доповідь нейробіолога Марти Брігс, Девід приймає рішення стати піддослідним щуром. Справа в тому, що якщо ввести собі спинномозкову рідину мертвої людини, то можна бачити, що сталося перед смертю її очима. Кілька ін'єкцій - і Девід розкриває страшний злочин, але життя самого Девіда тепер висить на волосині - вибереться він з цього експерименту чи загине, як гине кожна восьма піддослідна тварина?


Тривалість: 01:56:51
Якість: 720p
Відео:
кодек:
розмір кадру: 1280x692
бітрейт: 8893 кб/с

Аудіо # 1:
мова: українська
переклад: двоголосий закадровий TBi
кодек: 2.0
бітрейт: 192 кб/с

Аудіо # 2:
мова: англійська
переклад: оригінал
кодек: 5.1
бітрейт: 1509 кб/с

Субтитри:
мова: англійська
тип: програмні (м'які)
формат: *.srt
Info
General
Unique ID : 179262738971334485288600498330401868603 (0x86DCBF6898E1F73990B82ECC63718B3B)
Complete name : E:\HDCLUB\Unforgettable (1996) [Ukr,Eng sub.Eng] 720p [Hurtom].
Format :
Format version : Version 4 / Version 2
File size : 8.66 GiB
Duration : 1h 56mn
Overall bit rate : 10.6 Mbps
Movie name : Unforgettable (1996) [Ukr,Eng sub.Eng] 720p [Hurtom]
Encoded date : UTC 2017-01-05 08:49:42
Writing application : mkvmerge v9.5.0 ('Quiet Fire') 64bit
Writing library : libebml v1.3.4 + libmatroska v1.4.5
Attachements : cover.jpg..jpg

Video
ID : 1
Format : AVC
Format/Info : Advanced Video Codec
Format profile : [email protected]
Format settings, CABAC : Yes
Format settings, ReFrames : 9 frames
Codec ID : V_MPEG4/ISO/AVC
Duration : 1h 56mn
Bit rate : 8 893 Kbps
Width : 1 280 pixels
Height : 692 pixels
Display aspect ratio : 1.85:1
Frame rate mode : Constant
Frame rate : 23.976 (24000/1001) fps
Color space : YUV
Chroma subsampling : 4:2:0
Bit depth : 8 bits
Scan type : Progressive
Bits/(Pixel*Frame) : 0.419
Stream size : 7.27 GiB (84%)
Title : Unforgettable (1996) 720p
Writing library : core 148 r2665kMod a01e339
Encoding settings : cabac=1 / ref=9 / deblock=1:-3:-3 / analyse=0x3:0x133 / me=umh / subme=10 / psy=1 / fade_compensate=0.00 / psy_rd=0.95:0.00 / mixed_ref=1 / me_range=32 / chroma_me=1 / trellis=2 / 8x8dct=1 / cqm=0 / deadzone=21,11 / fast_pskip=0 / chroma_qp_offset=-2 / threads=6 / lookahead_threads=1 / sliced_threads=0 / nr=0 / decimate=0 / interlaced=0 / bluray_compat=0 / constrained_intra=0 / fgo=0 / bframes=8 / b_pyramid=2 / b_adapt=2 / b_bias=0 / direct=3 / weightb=1 / open_gop=0 / weightp=2 / keyint=250 / keyint_min=23 / scenecut=40 / intra_refresh=0 / rc=crf / mbtree=0 / crf=18.0000 / qcomp=0.60 / qpmin=0 / qpmax=69 / qpstep=4 / ip_ratio=1.40 / pb_ratio=1.30 / aq=3:0.90
Language : English
Default : Yes
Forced : No

Audio #1
ID : 2
Format : AC-3
Format/Info : Audio Coding 3
Mode extension : CM (complete main)
Format settings, Endianness : Big
Codec ID : A_AC3
Duration : 1h 56mn
Bit rate mode : Constant
Bit rate : 192 Kbps
Channel(s) : 2 channels
Channel positions : Front: L R
Sampling rate : 48.0 KHz
Frame rate : 31.250 fps (1536 spf)
Compression mode : Lossy
Stream size : 161 MiB (2%)
Title : UA-DVO- TBi|
Language : Ukrainian
Default : Yes
Forced : Yes

Audio #2
ID : 3
Format :
Format/Info : Digital Theater Systems
Mode : 16
Format settings, Endianness : Big
Codec ID : A_DTS
Duration : 1h 56mn
Bit rate mode : Constant
Bit rate : 1 509 Kbps
Channel(s) : 6 channels
Channel positions : Front: L C R, Side: L R, LFE
Sampling rate : 48.0 KHz
Frame rate : 93.750 fps (512 spf)
Bit depth : 24 bits
Compression mode : Lossy
Stream size : 1.23 GiB (14%)
Title : ORIGINAL
Language : English
Default : No
Forced : No

Text
ID : 4
Format : UTF-8
Codec ID : S_TEXT/UTF8
Codec ID/Info : UTF-8 Plain Text
Duration : 1h 47mn
Bit rate : 41 bps
Count of elements : 949
Stream size : 32.5 KiB (0%)
Language : English
Default : No
Forced : No
Скріншоти



Джерело: &


Срібний реліз (на рейтинг впливає 50% завантаженого)
 Трекер:    Зареєстрований   

Завантажити / скачати фільм українською



відео для новачків



 Зареєстрований:   2017-01-05 11:24
 Розмір:   8.66 GB 
 Оцінка фільму:   10/10 (Голосів: 2)
   
Інші релізи
   Незабутнє / Unforgettable (1996) Ukr/Eng | Sub Eng igor911  3 / 0   2.03 GB   2017-01-07 02:20 
besconst 
Новенький


З нами з: 10.03.12
Востаннє: 17.12.17
Повідомлень: 17

2017-01-05 20:35  
знайшла міліція)))
М_а_м_а_Й 
VIP


З нами з: 12.08.11
Востаннє: 09.12.17
Повідомлень: 379

2017-01-06 06:37  
Дружини? То він кілька дружин мав і усіх вбив?
Ваш часовий пояс: GMT + 2 Години

Нова тема   Відповісти