Картковий будинок (Сезон 4) / House of Cards (Season 4) (2016) 720p Ukr/Eng | Sub Ukr

Нові коментарі

Нова тема   Відповісти
Автор Повідомлення
Anonymous 







2017-01-04 22:41  
Повний 1-ий сезон: | AVC | 720p | 1080p
Повний 2-ий сезон: | AVC | 720p | 1080p

Повний 3-ий сезон: | AVC | 720p | 1080p

Повний 4-ий сезон: | AVC | 720p | 1080p
П’ятий сезон: | AVC | 1080p
Картковий будинок (Сезон 4) / House of Cards (Season 4) (2016) 720p Ukr/Eng | Sub Ukr

Картковий будинок (Сезон 4) / House of Cards (Season 4) (2016) 720p Ukr/Eng | Sub Ukr


Жанр: драма, політичний трилер
Країна: США



Кінокомпанія: Netflix, Media Rights Capital, Panic Pictures (II), Trigger Street Productions
Режисер: Дейвід Фінчер, Джеймс Фоулі, Джоель Шумахер та інші.
Актори: Кевін Спейсі (Kevin Spacey), Робін Райт, Кейт Мара, Корі Стол, Майкл Келі, Молі Паркер та інші.

Сюжет:
Френк і Клер продовжують свій похід у владу, воюючи з усіма на своєму шляху, зокрема й одне з одним.


Тривалість: 1 серія: ~50:00 (цілком серій: 13)
Перелік серій

1. Розділ сорок / Chapter 40
2. Розділ сорок перший / Chapter 41
3. Розділ сорок другий / Chapter 42
4. Розділ сорок третій / Chapter 43
5. Розділ сорок четвертий / Chapter 44
6. Розділ сорок п’ятий / Chapter 45
7. Розділ сорок шостий / Chapter 46
8. Розділ сорок сьомий / Chapter 47
9. Розділ сорок восьмий / Chapter 48
10. Розділ сорок дев’ятий / Chapter 49
11. Розділ п’ятдесят / Chapter 50
12. Розділ п’ятдесят перший / Chapter 51
12. Розділ п’ятдесят другий / Chapter 52
Якість: 720p [Sensetivity]
Відео:
кодек:
розмір кадру: 1280 х 640
бітрейт: ~4000 кб/с

Аудіо # 1:
мова: українська
переклад: багатоголосий закадровий | Студія «Гуртом»
кодек: 5.1
бітрейт: 640 кб/с

Аудіо # 2:
мова: англійська
переклад: оригінал
кодек: 5.1
бітрейт: 640 кб/с

Субтитри:
мова: українська | переклад: Федора Сидорука
тип: програмні (м'які)
формат: *.srt
Info

General
Unique ID : 249971296773684142624074992760633449227 (0xBC0EB8773C0AB839A8EA0658EEC85B0B)
Complete name : D:\Torrents\Довготривлі роздачі\House of Cards. Season 4 (2016) 720p\House of Cards. S04E11 (2016) 720p [Ukr.Eng] [Hurtom].
Format :
Format version : Version 2
File size : 1.90 GiB
Duration : 51 min 34 s
Overall bit rate : 5 284 kb/s
Movie name : House of Cards. Season 4 (2016) Episode - 11
Encoded date : UTC 2017-01-04 20:18:00
Writing application : v7.8.0 ('River Man') 32bit built on Apr 3 2015 12:11:22
Writing library : libebml v1.3.1 + v1.4.2
Attachments : Poster.jpg

Video
ID : 1
Format : AVC
Format/Info : Advanced Video Codec
Format profile : [email protected]
Format settings, CABAC : Yes
Format settings, ReFrames : 4 frames
Codec ID : V_MPEG4/ISO/AVC
Duration : 51 min 34 s
Bit rate : 4 000 kb/s
Width : 1 280 pixels
Height : 640 pixels
Display aspect ratio : 2.000
Frame rate mode : Constant
Frame rate : 23.976 (24000/1001) FPS
Color space : YUV
Chroma subsampling : 4:2:0
Bit depth : 8 bits
Scan type : Progressive
Bits/(Pixel*Frame) : 0.204
Stream size : 1.40 GiB (74%)
Title : by Sensetivity
Writing library : core 146 r2538 121396c
Encoding settings : cabac=1 / ref=4 / deblock=1:-1:-1 / analyse=0x3:0x113 / me=umh / subme=9 / psy=1 / psy_rd=1.00:0.10 / mixed_ref=1 / me_range=64 / chroma_me=1 / trellis=2 / 8x8dct=1 / cqm=0 / deadzone=21,11 / fast_pskip=1 / chroma_qp_offset=-6 / threads=24 / lookahead_threads=5 / sliced_threads=0 / nr=0 / decimate=1 / interlaced=0 / bluray_compat=0 / constrained_intra=0 / bframes=10 / b_pyramid=2 / b_adapt=2 / b_bias=0 / direct=3 / weightb=1 / open_gop=0 / weightp=2 / keyint=230 / keyint_min=23 / scenecut=40 / intra_refresh=0 / rc_lookahead=230 / rc=2pass / mbtree=1 / bitrate=4000 / ratetol=1.0 / qcomp=0.70 / qpmin=0 / qpmax=35 / qpstep=6 / cplxblur=20.0 / qblur=0.5 / ip_ratio=1.40 / aq=1:1.00
Language : English
Default : Yes
Forced : No

Audio #1
ID : 2
Format : AC-3
Format/Info : Audio Coding 3
Mode extension : CM (complete main)
Format settings, Endianness : Big
Codec ID : A_AC3
Duration : 51 min 34 s
Bit rate mode : Constant
Bit rate : 640 kb/s
Channel(s) : 6 channels
Channel positions : Front: L C R, Side: L R, LFE
Sampling rate : 48.0 kHz
Frame rate : 31.250 FPS (1536 spf)
Bit depth : 16 bits
Compression mode : Lossy
Stream size : 236 MiB (12%)
Title : Студія Гуртом
Language : Ukrainian
Default : Yes
Forced : No

Audio #2
ID : 3
Format : AC-3
Format/Info : Audio Coding 3
Mode extension : CM (complete main)
Format settings, Endianness : Big
Codec ID : A_AC3
Duration : 51 min 34 s
Bit rate mode : Constant
Bit rate : 640 kb/s
Channel(s) : 6 channels
Channel positions : Front: L C R, Side: L R, LFE
Sampling rate : 48.0 kHz
Frame rate : 31.250 FPS (1536 spf)
Bit depth : 16 bits
Compression mode : Lossy
Stream size : 236 MiB (12%)
Title : Оригінал
Language : English
Default : No
Forced : No

Text
ID : 4
Format : UTF-8
Codec ID : S_TEXT/UTF8
Codec ID/Info : UTF-8 Plain Text
Title : переклад: Федора Сидорука
Language : Ukrainian
Default : No
Forced : No
log

Encoding video to: G:\Temp\0045.264
4000kbps 1280x640 23.976fps (69911 frames)

...first pass...

avs4x26x.exe: -L x264_64.exe --pass 1 --bitrate 4000 --preset medium --profile high --level 4.1 --ref 4 --aq-strength 1.00 --deblock -1:-1 --merange 64 --bframes 10 --direct auto --b-adapt 2 --trellis 2 --cqm flat --qpmax 35 --qpstep 6 --psy-rd 1.00:0.10 --qcomp 0.70 --chroma-qp-offset -3 --partitions i4x4,i8x8,p8x8,b8x8 --subme 9 --me umh --rc-lookahead 250 --min-keyint 23 --keyint 230 --sar 1:1 --stats "G:\Temp\0045.log" --output NUL "G:\Temp\0045.avs"

raw [info]: 1280x640p 1:1 @ 24000/1001 fps (cfr)
[info]: using SAR=1/1
[info]: using cpu capabilities: MMX2 SSE2Fast SSSE3 SSE4.2 AVX
[info]: profile Main, level 4.1
[info]: frame I:508 Avg QP: 9.85 size:140238
[info]: frame P:17500 Avg QP:12.56 size: 40037
[info]: frame B:51903 Avg QP:14.29 size: 13141
[info]: consecutive B-frames: 1.8% 2.8% 6.3% 68.8% 4.5% 8.4% 1.8% 5.2% 0.2% 0.1% 0.0%
[info]: mb I I16..4: 39.3% 0.0% 60.7%
[info]: mb P I16..4: 29.8% 0.0% 0.0% P16..4: 59.4% 0.0% 0.0% 0.0% 0.0% skip:10.8%
[info]: mb B I16..4: 7.1% 0.0% 0.0% B16..8: 33.4% 0.0% 0.0% direct:22.2% skip:37.3% L0:36.8% L1:41.5% BI:21.7%
[info]: final ratefactor: 15.00
[info]: direct mvs spatial:99.7% temporal:0.3%
[info]: coded y,uvDC,uvAC intra: 67.0% 85.5% 80.6% inter: 23.4% 28.5% 13.5%
[info]: i16 v,h,dc,p: 43% 18% 29% 10%
[info]: i4 v,h,dc,ddl,ddr,vr,hd,vl,hu: 24% 21% 14% 6% 7% 7% 7% 7% 7%
[info]: i8c dc,h,v,p: 64% 13% 18% 5%
[info]: Weighted P-Frames: Y:1.8% UV:0.8%
[info]: kb/s:3989.11

[total]: encoded 69911 frames, 61.40 fps, 3989.11 kb/s

...last pass...

avs4x26x.exe: -L x264_64.exe --pass 2 --bitrate 4000 --preset medium --profile high --level 4.1 --ref 4 --aq-strength 1.00 --deblock -1:-1 --merange 64 --bframes 10 --direct auto --b-adapt 2 --trellis 2 --cqm flat --qpmax 35 --qpstep 6 --psy-rd 1.00:0.10 --qcomp 0.70 --chroma-qp-offset -3 --partitions i4x4,i8x8,p8x8,b8x8 --subme 9 --me umh --rc-lookahead 250 --min-keyint 23 --keyint 230 --sar 1:1 --stats "G:\Temp\0045.log" --output "G:\Temp\0045.264" "G:\Temp\0045.avs"

raw [info]: 1280x640p 1:1 @ 24000/1001 fps (cfr)
[info]: using SAR=1/1
[info]: using cpu capabilities: MMX2 SSE2Fast SSSE3 SSE4.2 AVX
[info]: profile High, level 4.1
[info]: frame I:508 Avg QP:10.67 size:156995
[info]: frame P:17500 Avg QP:13.68 size: 39359
[info]: frame B:51903 Avg QP:15.00 size: 13295
[info]: consecutive B-frames: 1.8% 2.8% 6.3% 68.8% 4.5% 8.4% 1.8% 5.2% 0.2% 0.1% 0.0%
[info]: mb I I16..4: 18.6% 57.8% 23.6%
[info]: mb P I16..4: 1.6% 7.8% 1.0% P16..4: 35.9% 27.0% 17.1% 0.0% 0.0% skip: 9.6%
[info]: mb B I16..4: 0.2% 0.8% 0.1% B16..8: 37.3% 12.9% 4.0% direct: 7.3% skip:37.4% L0:44.6% L1:46.0% BI: 9.4%
[info]: 8x8 transform intra:71.9% inter:48.6%
[info]: direct mvs spatial:97.7% temporal:2.3%
[info]: coded y,uvDC,uvAC intra: 82.2% 90.7% 86.4% inter: 19.1% 39.1% 28.2%
[info]: i16 v,h,dc,p: 39% 11% 19% 31%
[info]: i8 v,h,dc,ddl,ddr,vr,hd,vl,hu: 13% 11% 15% 8% 10% 10% 10% 10% 12%
[info]: i4 v,h,dc,ddl,ddr,vr,hd,vl,hu: 14% 13% 6% 9% 13% 12% 11% 10% 12%
[info]: i8c dc,h,v,p: 61% 15% 15% 10%
[info]: Weighted P-Frames: Y:1.8% UV:0.8%
[info]: ref P L0: 58.9% 5.8% 24.1% 10.5% 0.7% 0.0%
[info]: ref B L0: 84.5% 12.4% 3.1%
[info]: ref B L1: 92.6% 7.4%
[info]: kb/s:4001.85

[total]: encoded 69911 frames, 25.95 fps, 4001.85 kb/s
Скріншоти













Джерело:
Особиста оцінка: 9 - давно не бачив настільки якісне кіно


Авторський реліз (завантажувати можна без реєстрації)
 Трекер:    Зареєстрований   

Завантажити / скачати серіал українською



відео для новачків



 Зареєстрований:   2017-01-04 22:44
 Розмір:   23.4 GB 
 Оцінка серіалу:   7.2/10 (Голосів: 35)
   
Anonymous 







2017-01-04 22:45  
5-й сезон у 720р буде викладено мною коли вийдуть Blu-ray диски. Орієнтовно, це буде зима 2017-18.
Ваш часовий пояс: GMT + 2 Години

Нова тема   Відповісти