Великий товстий брехун / Big Fat Liar (2002) 720p Ukr/Eng | Sub Ukr/Eng

Нові коментарі

Нова тема   Відповісти
Автор Повідомлення
staf777 
Відео Гуртом - підтримка та поширення
Відео Гуртом - підтримка та поширення


З нами з: 16.11.16
Востаннє: 11.09.17
Повідомлень: 522

2017-01-04 19:51  
Великий товстий брехун / Big Fat Liar (2002) 720p Ukr/Eng | Sub Ukr/Eng

Великий товстий брехун / Big Fat Liar (2002) 720p Ukr/Eng | Sub Ukr/Eng


Жанр: пригодницький, комедія, сімейний
Країна: США, Німеччина



Кінокомпанія: Paramount Pictures, Tollin/Robbins Productions, Mediastream Zweite Film GmbH & Co. Productions KG, Universal Pictures
Режисер: Шон Леві
Актори: Френке Мунез, Пол Джіаматті, Аманда Байнз

Сюжет:
14-річний Джейсон Шеферд дізнається, що його шкільна робота - сценарій під назвою "Великий товстий брехун" - була вкрадена голівудським продюсером і перетворена на справжній блокбастер.
Відправившися в Лос-Анджелес зі своєю подружкою Кейлі, хлопець намагається повернути собі свої права. І за допомогою різних витівок ставить на коліна відомого продюсера!


Тривалість: 01:27:47
Якість: 720p
Відео:
кодек:
розмір кадру: 1280x694
бітрейт: 7497 кб/с

Аудіо # 1:
мова: українська
переклад: багатоголосий закадровий
кодек: 2.0
бітрейт: 192 кб/с

Аудіо # 2:
мова: англійська
переклад: оригінал
кодек: 5.1
бітрейт: 640 кб/с

Субтитри # 1-2:
мова: українська (форсовані, повні)
тип: програмні (м'які)
формат: *.srt
переклад: Hentaihunter

Субтитри # 3:
мова: англійська
тип: програмні (м'які)
формат: *.srt
Info
General
Unique ID : 196414191619050583768371584152598739904 (0x93C3FF4FFB520435A0F59845C02FFBC0)
Complete name : E:\HDCLUB\Big Fat Liar (2002) [Ukr,Eng sub.Ukr,Eng] 720p [Hurtom].
Format :
Format version : Version 4 / Version 2
File size : 5.11 GiB
Duration : 1h 27mn
Overall bit rate : 8 333 Kbps
Movie name : Big Fat Liar (2002) [Ukr,Eng sub.Ukr,Eng] 720p [Hurtom]
Encoded date : UTC 2017-01-04 16:17:57
Writing application : mkvmerge v9.5.0 ('Quiet Fire') 64bit
Writing library : libebml v1.3.4 + libmatroska v1.4.5
Attachements : cover.jpg

Video
ID : 1
Format : AVC
Format/Info : Advanced Video Codec
Format profile : [email protected]
Format settings, CABAC : Yes
Format settings, ReFrames : 9 frames
Codec ID : V_MPEG4/ISO/AVC
Duration : 1h 27mn
Bit rate : 7 500 Kbps
Width : 1 280 pixels
Height : 694 pixels
Display aspect ratio : 1.85:1
Frame rate mode : Constant
Frame rate : 23.976 (23976/1000) fps
Color space : YUV
Chroma subsampling : 4:2:0
Bit depth : 8 bits
Scan type : Progressive
Bits/(Pixel*Frame) : 0.352
Stream size : 4.60 GiB (90%)
Title : Big Fat Liar (2002) 720p
Writing library : core 148 r2705+54 9f484c1 t_mod_Custom [[email protected] X86_64]
Encoding settings : cabac=1 / ref=9 / deblock=1:-3:-3 / analyse=0x3:0x133 / me=umh / subme=10 / psy=1 / fade_compensate=0.00 / psy_rd=1.10:0.05 / mixed_ref=1 / me_range=32 / chroma_me=1 / trellis=2 / 8x8dct=1 / cqm=0 / deadzone=21,11 / fast_pskip=0 / chroma_qp_offset=-3 / threads=6 / lookahead_threads=1 / sliced_threads=0 / nr=0 / decimate=1 / interlaced=0 / bluray_compat=0 / constrained_intra=0 / fgo=0 / bframes=8 / b_pyramid=2 / b_adapt=2 / b_bias=0 / direct=3 / weightb=1 / open_gop=0 / weightp=2 / keyint=250 / keyint_min=23 / scenecut=40 / intra_refresh=0 / rc=2pass / mbtree=0 / bitrate=7500 / ratetol=1.0 / qcomp=0.60 / qpmin=0:0:0 / qpmax=69:69:69 / qpstep=4 / cplxblur=20.0 / qblur=0.5 / ip_ratio=1.30 / pb_ratio=1.20 / aq=1:0.80 / aq-sensitivity=10.00 / aq-factor=1.00:1.00:1.00 / aq2=1:0.70 / aq2-sensitivity=15.00 / aq2-factor=1.00:1.00:1.00 / aq3=1:[0.60:0.60]:[0.60:0.60]:[0.60:0.60]:[0.60:0.60] / aq3-sensitivity=10.00 / aq3-factor=[1.00:1.00]:[1.00:1.00]:[1.00:1.00] / aq3-boundary=192:64:24
Language : English
Default : Yes
Forced : No
Color range : Limited
Matrix coefficients : BT.709

Audio #1
ID : 2
Format : AC-3
Format/Info : Audio Coding 3
Mode extension : CM (complete main)
Format settings, Endianness : Big
Codec ID : A_AC3
Duration : 1h 27mn
Bit rate mode : Constant
Bit rate : 192 Kbps
Channel(s) : 2 channels
Channel positions : Front: L R
Sampling rate : 48.0 KHz
Frame rate : 31.250 fps (1536 spf)
Compression mode : Lossy
Stream size : 121 MiB (2%)
Title : UA-DVO
Language : Ukrainian
Default : Yes
Forced : Yes

Audio #2
ID : 3
Format : AC-3
Format/Info : Audio Coding 3
Mode extension : CM (complete main)
Format settings, Endianness : Big
Codec ID : A_AC3
Duration : 1h 27mn
Bit rate mode : Constant
Bit rate : 640 Kbps
Channel(s) : 6 channels
Channel positions : Front: L C R, Side: L R, LFE
Sampling rate : 48.0 KHz
Frame rate : 31.250 fps (1536 spf)
Compression mode : Lossy
Stream size : 402 MiB (8%)
Title : ORIGINAL
Language : English
Default : No
Forced : No

Text #1
ID : 4
Format : UTF-8
Codec ID : S_TEXT/UTF8
Codec ID/Info : UTF-8 Plain Text
Duration : 1h 25mn
Bit rate : 14 bps
Count of elements : 169
Stream size : 9.04 KiB (0%)
Title : forced
Language : Ukrainian
Default : No
Forced : No

Text #2
ID : 5
Format : UTF-8
Codec ID : S_TEXT/UTF8
Codec ID/Info : UTF-8 Plain Text
Duration : 1h 22mn
Bit rate : 107 bps
Count of elements : 1086
Stream size : 64.6 KiB (0%)
Language : Ukrainian
Default : No
Forced : No

Text #3
ID : 6
Format : UTF-8
Codec ID : S_TEXT/UTF8
Codec ID/Info : UTF-8 Plain Text
Duration : 1h 22mn
Bit rate : 69 bps
Count of elements : 1306
Stream size : 41.8 KiB (0%)
Language : English
Default : No
Forced : No
Скріншоти



Джерело: &
За українську доріжку дякую пану GRONHOLD, за субтитри - п.Hentaihunter
Особиста оцінка: 10 - без зайвих вагань рекомендую всім!


Срібний реліз (на рейтинг впливає 50% завантаженого)
 Трекер:    Зареєстрований   

Завантажити / скачати фільм українською



відео для новачків



 Зареєстрований:   2017-01-04 19:51
 Розмір:   5.11 GB 
 Оцінка фільму:   10/10 (Голосів: 1)
   
igor911 
Відео Гуртом
Відео Гуртом


З нами з: 18.01.08
Востаннє: 17.10.17
Повідомлень: 7906

2017-01-04 20:18  
staf777 написано:
Тривалість: 01:27:37

hdclub написано:
01:27:47
То яка ж тут тривалість і чи перевіряли на відсутність розсинхрону? Одноголосі вставки теж є, як у попередніх релізах? Якщо є - зазнач це в примітці до доріжки.

Додано через 1 хвилину 58 секунд:

В Hentaihunter'а та drop_plz однакове озвучення? бо в одного вказана двоголоска, а в іншого багатоголоска?

Додано через 2 хвилини 31 секунду:

також чомусь не вказана наявність українських форсованих субтитрів, а самі вони не виставлені за замовчуванням та примусово у контейнері.

staf777 
Відео Гуртом - підтримка та поширення
Відео Гуртом - підтримка та поширення


З нами з: 16.11.16
Востаннє: 11.09.17
Повідомлень: 522

2017-01-04 21:09  
Там де брав ріп теж вказана двох голоска - я написав що многоголоска так як подивившись хвилин 20 фільм стає зрозуміло що більше голосів ніж два - расихрона за 20 хвилин не почув

Ось де брав hdclub.org
GRONHOLD чоловік, який дав дорогу на HDClub походу брав її не у нас на трекері - якщо я не помиляюся це колишній модератор з нашого миколаївського трекера

igor911 
Відео Гуртом
Відео Гуртом


З нами з: 18.01.08
Востаннє: 17.10.17
Повідомлень: 7906

2017-01-04 21:18  
staf777 написано:
GRONHOLD

тоді навіщо вказувати оце?
staf777 написано:
За доріжку дякую пану: Hentaihunter, drop_plz

Чи є одноголосі вставки на початку та в кінці фільму близько 1 хвилини?

staf777 
Відео Гуртом - підтримка та поширення
Відео Гуртом - підтримка та поширення


З нами з: 16.11.16
Востаннє: 11.09.17
Повідомлень: 522

2017-01-04 21:24  
igor911
Чесно кажучи я не спец по таким справам але на початку фільму начебто не чого не почув лівого

Ваш часовий пояс: GMT + 2 Години

Нова тема   Відповісти