Лугова Країна / Meadowland (2015) 720p Eng | sub Ukr/Eng

Нові коментарі

Нова тема   Відповісти
Останній раз роздавалося okovch (2020-11-25)
Автор Повідомлення
Anonymous 







2017-01-04 18:00  
Лугова Країна / Meadowland (2015) 720p Eng | sub Ukr/Eng



Жанр: драма
Країна: США



Кінокомпанія: Bron Studios, Itaca Films
Режисер: Рід Морано
Актори: Олівія Вайлд, Люк Вілсон, Джованні Рібізі, Елізабет Мосс, Джуно Темпл

Сюжет:
Подружжя Сара і Філ стикаються з бідою: безслідно зникає їх син. Філ, поліцейський з Нью-Йорка намагається заглушити горе звичними методами з звичайними в таких випадках наслідками, а Сара справляється з цим іншим способом: вона починає сама шукати на свою голову не просто неприємності, а справжні небезпеки.


Тривалість: 01:35:04
Якість:
Відео:
кодек:
розмір кадру: 1280x532
бітрейт: 3987 кб/с

Аудіо:
мова: англійська
переклад: оригінал
кодек: 5.1
бітрейт: 384 кб/с

Субтитри:
мова: українська
тип: програмні (м'які)
формат: *.srt

Субтитри:
мова: англійська
тип: програмні (м'які)
формат: *.srt
Info
General
Unique ID : 195622198311176855974683405559114010486 (0x932B77070EA920ADB6547D23A35C8F76)
Complete name : E:\Meadowland.2015.720p..Eng.Ukr.Sub[Hurtom].
Format :
Format version : Version 4 / Version 2
File size : 2.96 GiB
Duration : 1h 35mn
Overall bit rate : 4 460 Kbps
Movie name : Meadowland (2015) - Release for HDCLUB
Encoded date : UTC 2017-01-08 15:48:24
Writing application : v8.8.0 ('Wind at my back') 64bit
Writing library : libebml v1.3.3 + v1.4.4
DURATION : 01:25:44.436000000
NUMBER_OF_FRAMES : 702
NUMBER_OF_BYTES : 22164
_STATISTICS_WRITING_APP : v8.8.0 ('Wind at my back') 64bit
_STATISTICS_WRITING_DATE_UTC : 2017-01-08 15:48:24
_STATISTICS_TAGS : BPS DURATION NUMBER_OF_FRAMES NUMBER_OF_BYTES

Video
ID : 1
Format : AVC
Format/Info : Advanced Video Codec
Format profile : [email protected]
Format settings, CABAC : No
Format settings, ReFrames : 2 frames
Codec ID : V_MPEG4/ISO/AVC
Duration : 1h 35mn
Bit rate : 3 987 Kbps
Width : 1 280 pixels
Height : 532 pixels
Display aspect ratio : 2.40:1
Frame rate mode : Constant
Frame rate : 23.976 fps
Color space : YUV
Chroma subsampling : 4:2:0
Bit depth : 8 bits
Scan type : Progressive
Bits/(Pixel*Frame) : 0.244
Stream size : 2.65 GiB (89%)
Title : Meadowland (2015)
Language : English
Default : Yes
Forced : No
Color range : Limited
Color primaries : BT.709
Transfer characteristics : BT.709
Matrix coefficients : BT.709

Audio
ID : 2
Format : AC-3
Format/Info : Audio Coding 3
Mode extension : CM (complete main)
Format settings, Endianness : Big
Codec ID : A_AC3
Duration : 1h 35mn
Bit rate mode : Constant
Bit rate : 384 Kbps
Channel(s) : 6 channels
Channel positions : Front: L C R, Side: L R, LFE
Sampling rate : 48.0 KHz
Bit depth : 16 bits
Compression mode : Lossy
Stream size : 261 MiB (9%)
Title : 5.1 @ 384 kbps
Language : English
Default : No
Forced : No

Text #1
ID : 3
Format : UTF-8
Codec ID : S_TEXT/UTF8
Codec ID/Info : UTF-8 Plain Text
Title : iTunes
Language : Ukrainian
Default : Yes
Forced : Yes

Text #2
ID : 4
Format : UTF-8
Codec ID : S_TEXT/UTF8
Codec ID/Info : UTF-8 Plain Text
Title : iTunes
Language : English
Default : No
Forced : No

Menu
00:00:00.000 : en:Chapter 1
00:10:00.000 : en:Chapter 2
00:20:00.000 : en:Chapter 3
00:30:00.000 : en:Chapter 4
00:40:00.000 : en:Chapter 5
00:50:00.000 : en:Chapter 6
01:00:00.000 : en:Chapter 7
01:10:00.000 : en:Chapter 8
01:20:00.000 : en:Chapter 9
01:30:00.000 : en:Chapter 10
Скріншоти




Джерело:
Особиста оцінка: 0 - не дивився


 Трекер:    Зареєстрований   

Завантажити / скачати фільм українською



відео для новачків



 Зареєстрований:   2017-01-08 18:04
 Розмір:   2.96 GB 
 Оцінка фільму:   3.6/10 (Голосів: 14)
   
bot 
робот


З нами з: 30.09.07
Востаннє: 26.05.05
Повідомлень: 26355

2017-01-04 18:00  
Тему перенесено з Фільми до форуму Анонси релізів


leicheman

staf777 
Відео Гуртом - підтримка та поширення
Відео Гуртом - підтримка та поширення


З нами з: 16.11.16
Востаннє: 24.11.20
Повідомлень: 4483

2017-01-04 19:12  
Так Anonymous чи leicheman Всіх здає бот
Pegass 
VIP


З нами з: 17.12.09
Востаннє: 24.11.20
Повідомлень: 1120

2017-01-04 20:14  
staf777
я тому неробив анонсів.

ТиДиви 
Поважний учасник


З нами з: 03.01.17
Востаннє: 23.11.20
Повідомлень: 153

2017-01-08 09:23  
Агов спільнота, невже важко скористатися посиланням та зробити копіювання сюжету до фільму?
Виноска до фільму Лугова Країна з iTunes-сайту
Код:
https://itunes.apple.com/ua/movie/lugova-kraina/id1142088076?l=uk

Anonymous 







2017-01-08 11:24  
ТиДиви
Агов новенький. Це просто анонс.

starlost 
VIP


З нами з: 06.08.15
Востаннє: 24.11.20
Повідомлень: 608

2017-01-08 12:31  
Anonymous написано:
Агов новенький

то пише "Anonymous" яким міг тиждень тому зареєструватиьс))) а курам на сміх

Patriot_ukr 
VIP


З нами з: 06.04.15
Востаннє: 20.11.20
Повідомлень: 2258

2017-01-08 13:16  
starlost
Від імені анонімоуса в коментарях може писати тільки автор теми, пан leicheman (видно по перенесенні теми, система недосконала).
Дата реєстрації - 03.07.14.

bot 
робот


З нами з: 30.09.07
Востаннє: 26.05.05
Повідомлень: 26355

2017-01-08 18:01  
Тему перенесено з Анонси релізів до форуму Фільми


leicheman

11FrYkT 
Модератор відео


З нами з: 20.02.11
Востаннє: 24.11.20
Повідомлень: 7031

2017-01-08 22:55  
Anonymous, вкажіть джерело сабів
Ваш часовий пояс: GMT + 2 Години

Нова тема   Відповісти