Сліпа лють / Blind Fury (1989) 2xUkr/Eng | Sub Eng

Нові коментарі

Нова тема   Відповісти
Автор Повідомлення
Anonymous 







2017-01-04 15:20  
Сліпа лють / Blind Fury (1989) 2xUkr/Eng | Sub Eng

Сліпа лють / Blind Fury (1989) 2xUkr/Eng | Sub Eng


Жанр: бойовик, трилер, драма, комедія, кримінальний
Країна: США



Кінокомпанія: TriStar Pictures, Interscope Communications
Режисер: Філіп Нойс
Актори: Рутґер Гауер, Террі О’Квінн, Брендон Колл, Ноубл Віллінгем, Ліза Блонт, Нік Касаветіс, Рік Овертон

Сюжет:
На перший погляд він безпомічний сліпий, один з тисяч нещасних безпритульних. Але не варто занадто покладатися на власний зір ... Ветеран В'єтнаму Нік Паркер осліп на війні, але жорстокий Схід навчив свою жертву великому мистецтву захисту.

Повернувшись до мирного життя, колишній солдат вимушений знову вступити в бій. Ніку не потрібно бачити своїх ворогів. Сліпа лють приведе його прямо до них ...


Тривалість: 01:26:26
Якість:
Відео:
кодек:
розмір кадру: 720 х 400
бітрейт: 1804 кб/с

Аудіо # 1:
мова: українська
переклад: багатоголосий закадровий | Так треба продакшн
кодек: 2.0 [стерео]
бітрейт: 192 кб/с

Аудіо # 2: & &
мова: українська
переклад: багатоголосий закадровий | Так треба продакшн
кодек: 2.0
бітрейт: 192 кб/с

Аудіо # 2:
мова: англійська
переклад: оригінал
кодек: 2.0
бітрейт: 192 кб/с

Субтитри:
мова: англійська (завантажити)
тип: програмні (м'які)
формат: *.srt
Info
Код:
General
Complete name               : Blind Fury (1989) [2xUkr,Eng] [Hurtom].avi
Format                      : AVI
Format/Info                 : Audio Video Interleave
File size                   : 1.45 GiB
Duration                    : 1 h 26 min
Overall bit rate            : 2 399 kb/s
Movie name                  : Сліпа лють / Blind Fury (1989) [2xUkr,Eng] [Hurtom]
Genre                       : бойовик, трилер, драма, комедія, кримінальний
Writing application         : VirtualDubModUkr 1.5.10.2 (build 2542/release)
Writing library             : VirtualDubMod build 2542/release
Comment                     : https://toloka.to/t78807 30.04.2018

Video
ID                          : 0
Format                      : MPEG-4 Visual
Format profile              : Advanced [email protected]
Format settings             : BVOP2 / Custom Matrix
Format settings, BVOP       : 2
Format settings, QPel       : No
Format settings, GMC        : No warppoints
Format settings, Matrix     : Custom
Codec ID                    :
Codec ID/Hint               :
Duration                    : 1 h 26 min
Bit rate                    : 1 804 kb/s
Width                       : 720 pixels
Height                      : 400 pixels
Display aspect ratio        : 16:9
Frame rate                  : 23.976 (24000/1001) FPS
Color space                 : YUV
Chroma subsampling          : 4:2:0
Bit depth                   : 8 bits
Scan type                   : Progressive
Compression mode            : Lossy
Bits/(Pixel*Frame)          : 0.261
Stream size                 : 1.09 GiB (75%)
Writing library             : 73

Audio #1
ID                          : 1
Format                      : AC-3
Format/Info                 : Audio Coding 3
Codec ID                    : 2000
Duration                    : 1 h 26 min
Bit rate mode               : Constant
Bit rate                    : 192 kb/s
Channel(s)                  : 2 channels
Channel positions           : Front: L R
Sampling rate               : 48.0 kHz
Frame rate                  : 31.250 FPS (1536 SPF)
Bit depth                   : 16 bits
Compression mode            : Lossy
Stream size                 : 119 MiB (8%)
Alignment                   : Split accross interleaves
Interleave, duration        : 42  ms (1.00 video frame)
Interleave, preload duratio : 500  ms
Title                       : UKR MVO [ICTV, TTP]
Service kind                : Complete Main

Audio #2
ID                          : 2
Format                      : AC-3
Format/Info                 : Audio Coding 3
Codec ID                    : 2000
Duration                    : 1 h 26 min
Bit rate mode               : Constant
Bit rate                    : 192 kb/s
Channel(s)                  : 2 channels
Channel positions           : Front: L R
Sampling rate               : 48.0 kHz
Frame rate                  : 31.250 FPS (1536 SPF)
Bit depth                   : 16 bits
Compression mode            : Lossy
Stream size                 : 119 MiB (8%)
Alignment                   : Split accross interleaves
Interleave, duration        : 42  ms (1.00 video frame)
Interleave, preload duratio : 500  ms
Title                       : UKR MVO [Inter, TTP]
Service kind                : Complete Main

Audio #3
ID                          : 3
Format                      : AC-3
Format/Info                 : Audio Coding 3
Codec ID                    : 2000
Duration                    : 1 h 26 min
Bit rate mode               : Constant
Bit rate                    : 192 kb/s
Channel(s)                  : 2 channels
Channel positions           : Front: L R
Sampling rate               : 48.0 kHz
Frame rate                  : 31.250 FPS (1536 SPF)
Bit depth                   : 16 bits
Compression mode            : Lossy
Stream size                 : 119 MiB (8%)
Alignment                   : Split accross interleaves
Interleave, duration        : 42  ms (1.00 video frame)
Interleave, preload duratio : 500  ms
Title                       : ENG [Original]
Service kind                : Complete Main


Джерело: & &
За доріжку з ICTV вдячний автору релізу https://toloka.to/t89630, за доріжку з Інтера/К1/НТН вдячний пані SweetN за запис з ТБ, HDСlub'у за синхронізацію.

30.04.2018 реліз оновлено - додано озвучення з ICTV


ЗАЛИШАЙТЕСЬ ЯКОМОГА ДОВШЕ НА РОЗДАЧІ
ЗАВАНТАЖИВ САМ - ДАЙ ЗАВАНТАЖИТИ ІНШИМ!


Срібний реліз (на рейтинг впливає 50% завантаженого)
 Трекер:    Зареєстрований   

Завантажити / скачати фільм українською



відео для новачків



 Зареєстрований:   2018-04-30 09:16
 Розмір:   1.45 GB 
 Оцінка фільму:   7.1/10 (Голосів: 32)
   
Інші релізи
   Сліпа лють / Blind Fury (1989) Remux 1080p 2xUkr/Eng | Sub Eng MakRA  0 / 0   16.41 GB   2019-12-03 00:06 
   Сліпа лють / Blind Fury (1989) AVC 2xUkr/Eng | Sub Eng bodia87  4 / 0   1.86 GB   2018-04-30 07:56 
   Сліпа лють / Blind Fury (1989) 720p Ukr/Eng | Sub Eng staf777  1 / 0   6.24 GB   2017-01-03 17:08 
Anonymous 







2018-04-30 09:19  
Реліз оновлено - додано доріжку з ICTV
Ваш часовий пояс: GMT + 2 Години

Нова тема   Відповісти