Приватний курорт / Private Resort (1985) 720p 2xUkr/Eng | Sub Eng

Нові коментарі

Нова тема   Відповісти
Автор Повідомлення
staf777 
Відео Гуртом - підтримка та поширення
Відео Гуртом - підтримка та поширення


З нами з: 16.11.16
Востаннє: 16.08.17
Повідомлень: 522

2017-01-04 15:23  
Приватний курорт / Private Resort (1985) 720p 2xUkr/Eng | Sub Eng

Приватний курорт / Private Resort (1985) 720p 2xUkr/Eng | Sub Eng


Жанр: комедія, еротика
Країна: США



Кінокомпанія: TRI STAR PICTURES
Режисер: Джордж Бауерс
Актори: Роб Морроу, Джонні Депп, Гектор Елізондо, Доді Гудмен, Тоні Азіто, Емілі Лонгстрет, Керін О'Браян, Хіларі Шепард, Леслі Істербрук, Майкл Боуен

Сюжет:
Два молодих і веселих хлопця потрапляють в розкішний готель на узбережжі, де намагаються «відтягнутися по повній програмі». На жаль, місцевий злодій і готельний детектив весь час заважають хлопцям займатися їх улюбленим «видом спорту» - здоровим сексом.


Тривалість: 01:21:55
Якість: 720p
Відео:
кодек:
розмір кадру: 1280x694
бітрейт: 14497 кб/с

Аудіо # 1:
мова: українська
переклад: багатоголосий закадровий
кодек: 2.0
бітрейт: 192 кб/с

Аудіо # 2:
мова: українська
переклад: двоголосий закадровий
кодек: 2.0
бітрейт: 192 кб/с

Аудіо # 3:
мова: англійська
переклад: оригінал
кодек: 2.0
бітрейт: 448 кб/с

Субтитри:
мова: англійська
тип: програмні (м'які)
формат: *.srt
Info
General
Unique ID : 194538472318829190571498137010500771624 (0x925ABF35FADB591685BBA6BEEC2B9F28)
Complete name : F:\» HD українською » Фільми в HD\Комедія\Private Resort (1985) [2xUkr,Eng sub.Eng] 720p [Hurtom].
Format :
Format version : Version 4 / Version 2
File size : 8.77 GiB
Duration : 1h 21mn
Overall bit rate : 15.3 Mbps
Movie name : Private Resort (1985) [2xUkr,Eng sub.Eng] 720p [Hurtom]
Encoded date : UTC 2017-01-04 11:38:51
Writing application : mkvmerge v9.5.0 ('Quiet Fire') 64bit
Writing library : libebml v1.3.4 + libmatroska v1.4.5
Attachements : cover.jpg

Video
ID : 1
Format : AVC
Format/Info : Advanced Video Codec
Format profile : [email protected]
Format settings, CABAC : Yes
Format settings, ReFrames : 9 frames
Codec ID : V_MPEG4/ISO/AVC
Duration : 1h 21mn
Bit rate : 14.5 Mbps
Width : 1 280 pixels
Height : 694 pixels
Display aspect ratio : 1.85:1
Frame rate mode : Constant
Frame rate : 23.976 (23976/1000) fps
Color space : YUV
Chroma subsampling : 4:2:0
Bit depth : 8 bits
Scan type : Progressive
Bits/(Pixel*Frame) : 0.681
Stream size : 8.29 GiB (95%)
Title : Private Resort (1985) 720p
Writing library : core 148 r2705+54 9f484c1 t_mod_Custom [[email protected] X86_64]
Encoding settings : cabac=1 / ref=9 / deblock=1:-3:-3 / analyse=0x3:0x133 / me=umh / subme=10 / psy=1 / fade_compensate=0.00 / psy_rd=1.10:0.05 / mixed_ref=1 / me_range=24 / chroma_me=1 / trellis=2 / 8x8dct=1 / cqm=0 / deadzone=21,11 / fast_pskip=0 / chroma_qp_offset=-3 / threads=6 / lookahead_threads=1 / sliced_threads=0 / nr=0 / decimate=1 / interlaced=0 / bluray_compat=0 / constrained_intra=0 / fgo=0 / bframes=8 / b_pyramid=2 / b_adapt=2 / b_bias=0 / direct=3 / weightb=1 / open_gop=0 / weightp=2 / keyint=250 / keyint_min=23 / scenecut=40 / intra_refresh=0 / rc=2pass / mbtree=0 / bitrate=14500 / ratetol=1.0 / qcomp=0.60 / qpmin=0:0:0 / qpmax=69:69:69 / qpstep=4 / cplxblur=20.0 / qblur=0.5 / ip_ratio=1.30 / pb_ratio=1.20 / aq=3:0.60 / aq-sensitivity=10.00 / aq-factor=1.00:1.00:1.00 / aq2=1:0.55 / aq2-sensitivity=15.00 / aq2-factor=1.00:1.00:1.00 / aq3=1:[0.50:0.50]:[0.50:0.50]:[0.50:0.50]:[0.50:0.50] / aq3-sensitivity=10.00 / aq3-factor=[1.00:1.00]:[1.00:1.00]:[1.00:1.00] / aq3-boundary=192:64:24
Language : English
Default : Yes
Forced : No
Color range : Limited
Matrix coefficients : BT.709

Audio #1
ID : 2
Format : AC-3
Format/Info : Audio Coding 3
Mode extension : CM (complete main)
Format settings, Endianness : Big
Codec ID : A_AC3
Duration : 1h 21mn
Bit rate mode : Constant
Bit rate : 192 Kbps
Channel(s) : 2 channels
Channel positions : Front: L R
Sampling rate : 48.0 KHz
Frame rate : 31.250 fps (1536 spf)
Compression mode : Lossy
Stream size : 112 MiB (1%)
Title : UA-MVO- INTER
Language : Ukrainian
Default : Yes
Forced : Yes

Audio #2
ID : 3
Format : AC-3
Format/Info : Audio Coding 3
Mode extension : CM (complete main)
Format settings, Endianness : Big
Codec ID : A_AC3
Duration : 1h 21mn
Bit rate mode : Constant
Bit rate : 192 Kbps
Channel(s) : 2 channels
Channel positions : Front: L R
Sampling rate : 48.0 KHz
Frame rate : 31.250 fps (1536 spf)
Compression mode : Lossy
Stream size : 112 MiB (1%)
Title : UA-DVO, 1+1
Language : Ukrainian
Default : No
Forced : Yes

Audio #3
ID : 4
Format : AC-3
Format/Info : Audio Coding 3
Mode extension : CM (complete main)
Format settings, Endianness : Big
Codec ID : A_AC3
Duration : 1h 21mn
Bit rate mode : Constant
Bit rate : 448 Kbps
Channel(s) : 2 channels
Channel positions : Front: L R
Sampling rate : 48.0 KHz
Frame rate : 31.250 fps (1536 spf)
Compression mode : Lossy
Stream size : 262 MiB (3%)
Title : Original
Language : English
Default : No
Forced : No

Text
ID : 5
Format : UTF-8
Codec ID : S_TEXT/UTF8
Codec ID/Info : UTF-8 Plain Text
Duration : 1h 17mn
Bit rate : 57 bps
Count of elements : 1032
Stream size : 32.8 KiB (0%)
Language : English
Default : No
Forced : No
Скріншоти



Джерело: &
За запис звуку від Інтера дякую robotron005, за її синхронізацію - Arsenfpu, за доріжку від 1+1 - speedwaykaskad
Особиста оцінка: 8 - мені сподобалося


Срібний реліз (на рейтинг впливає 50% завантаженого)
 Трекер:    Зареєстрований   

Завантажити / скачати фільм українською



відео для новачків



 Зареєстрований:   2017-01-04 15:23
 Розмір:   8.77 GB 
 Оцінка фільму:   9/10 (Голосів: 4)
   
Інші релізи
   Приватний курорт / Private Resort (1985) [MP4, 640x] apvAltisimo  0 / 0   527 MB   2015-11-24 14:38 
   Приватний курорт / Private Resort (1985) 2xUkr/Eng Arsenfpu  4 / 0   1.38 GB   2015-09-24 01:06 
hetzendorf 
Відео Гуртом - підтримка та поширення
Відео Гуртом - підтримка та поширення


З нами з: 23.07.15
Востаннє: 17.08.17
Повідомлень: 401

2017-01-08 03:11  
Практично увесь фільм викликав у мене приступи здорового сміху. Ось що значить добра стара комедія!
10/10

AMOROSO 
Новенький


З нами з: 01.01.12
Востаннє: 17.08.17
Повідомлень: 24

2017-01-11 20:46  
Цікаво було глянути на Джонні Депа в молодості
Ваш часовий пояс: GMT + 2 Години

Нова тема   Відповісти