Озеро акул / Shark Lake (2015) 720p Ukr/Eng | Sub Eng

Нові коментарі

Нова тема   Відповісти
Автор Повідомлення
corega 
Новенький


З нами з: 15.10.08
Востаннє: 15.12.17
Повідомлень: 17

2017-01-04 11:29  
Озеро акул / Shark Lake (2015) 720p Ukr/Eng | Sub Eng



Жанр: трилер
Країна: США



Кінокомпанія: Bottom Line Entertainment, FLF Films, Parkside Pictures
Режисер: Джеррі Дуган
Актори: Дольф Лундгрен, Сара Малакул Лейн, Джеймс Чалк та інші

Сюжет:
Клінт був одним з найкращих контрабандистів екзотичних видів тварин, працював на впливового кримінального авторитета та намагався самостійно виховувати маленьку дочку. Одного разу копи вийшли на нього та влаштовували нічну облаву, але Клінту вдалося вирватися на фургоні з цінним вантажем. В результаті поліцейської погоні чоловік злітає з дороги в озеро та його арештовують, а контрабанда зникає у водяній пучині. Коли Клінт виходить з в'язниці, його дочка не бажає повертатися до батька, колишній керівник вимагає віддати "борг", а в озері розвелися небезпечні акули, котрі нападають на людей.

Тривалість: 01:32:34
Якість: 720p

Відео:
кодек:
розмір кадру: 1280 х 720
бітрейт: 5034 Кбіт/с

Аудіо # 1:
мова: українська
переклад: багатоголосий закадровий
кодек: 2.0
бітрейт: 192 Кбіт/с

Аудіо # 2:
мова: англійська
переклад: оригінал
кодек: 5.1
бітрейт: 1509 Кбіт/с

Субтитри:
мова: англійська
тип: програмні (м'які)
формат: *.pgs

Збережено оригінальні розділи.
Info
Цитата:
General
Unique ID : 223413504992587863715138067759496034937 (0xA813E03C97C3BC5B978E3DD67C5DFA79)
Complete name : D:\Shark Lake (2015) 720p [UKR_ENG] [Hurtom].
Format :
Format version : Version 4 / Version 2
File size : 4.44 GiB
Duration : 1h 32mn
Overall bit rate : 6 872 Kbps
Encoded date : UTC 2017-01-03 21:52:28
Writing application : mkvmerge v8.3.0 ('Over the Horizon') 32bit
Writing library : libebml v1.3.1 + libmatroska v1.4.2
DURATION : 01:32:33.568000000
NUMBER_OF_FRAMES : 173549
NUMBER_OF_BYTES : 133285632
_STATISTICS_WRITING_APP : mkvmerge v8.3.0 ('Over the Horizon') 32bit
_STATISTICS_WRITING_DATE_UTC : 2017-01-03 21:52:28
_STATISTICS_TAGS : BPS DURATION NUMBER_OF_FRAMES NUMBER_OF_BYTES
Attachment : Yes

Video
ID : 1
Format : AVC
Format/Info : Advanced Video Codec
Format profile : [email protected]
Format settings, CABAC : Yes
Format settings, ReFrames : 9 frames
Codec ID : V_MPEG4/ISO/AVC
Duration : 1h 32mn
Bit rate : 5 034 Kbps
Width : 1 280 pixels
Height : 720 pixels
Display aspect ratio : 16:9
Frame rate mode : Constant
Frame rate : 23.976 fps
Color space : YUV
Chroma subsampling : 4:2:0
Bit depth : 8 bits
Scan type : Progressive
Bits/(Pixel*Frame) : 0.228
Stream size : 3.25 GiB (73%)
Language : English
Default : Yes
Forced : No

Audio #1
ID : 2
Format : AC-3
Format/Info : Audio Coding 3
Mode extension : CM (complete main)
Format settings, Endianness : Big
Codec ID : A_AC3
Duration : 1h 32mn
Bit rate mode : Constant
Bit rate : 192 Kbps
Channel(s) : 2 channels
Channel positions : Front: L R
Sampling rate : 48.0 KHz
Bit depth : 16 bits
Compression mode : Lossy
Stream size : 127 MiB (3%)
Title : MVO, 2+2
Language : Ukrainian
Default : Yes
Forced : No

Audio #2
ID : 3
Format :
Format/Info : Digital Theater Systems
Mode : 16
Format settings, Endianness : Big
Codec ID : A_DTS
Duration : 1h 32mn
Bit rate mode : Constant
Bit rate : 1 509 Kbps
Channel(s) : 6 channels
Channel positions : Front: L C R, Side: L R, LFE
Sampling rate : 48.0 KHz
Bit depth : 24 bits
Compression mode : Lossy
Stream size : 999 MiB (22%)
Title : Original
Language : English
Default : No
Forced : No

Text
ID : 4
Format : PGS
Muxing mode : zlib
Codec ID : S_HDMV/PGS
Codec ID/Info : The same subtitle format used on BDs/HD-DVDs
Title : English PGS
Language : English
Default : No
Forced : No

Menu
00:00:00.000 : en:00:00:00.000
00:06:08.493 : en:00:06:08.493
00:11:28.980 : en:00:11:28.980
00:18:51.630 : en:00:18:51.630
00:25:00.499 : en:00:25:00.499
00:32:54.431 : en:00:32:54.431
00:43:53.297 : en:00:43:53.297
00:50:50.881 : en:00:50:50.881
00:57:53.011 : en:00:57:53.011
01:06:36.201 : en:01:06:36.201
01:16:29.293 : en:01:16:29.293
01:25:19.489 : en:01:25:19.489


Подяка пану xslim за запис з ТБ.


 Трекер:    Зареєстрований   

Завантажити / скачати фільм українською



відео для новачків



 Зареєстрований:   2017-01-04 11:29
 Розмір:   4.44 GB 
 Оцінка фільму:   6.4/10 (Голосів: 5)
   
Інші релізи
   Озеро акул / Shark Lake (2015) Ukr/Eng Electroz  3 / 0   1.45 GB   2016-12-29 11:08 
Ваш часовий пояс: GMT + 2 Години

Нова тема   Відповісти