Відьма з Блер: Нова глава / Blair Witch (2016) Remux 1080p Ukr/Eng | Sub Eng

Нові коментарі

Нова тема   Відповісти
Останній раз роздавалося drakka (2017-12-14)
Автор Повідомлення
staf777 
Відео Гуртом - підтримка та поширення
Відео Гуртом - підтримка та поширення


З нами з: 16.11.16
Востаннє: 06.11.17
Повідомлень: 522

2017-01-03 21:50  
Відьма з Блер: Нова глава / Blair Witch (2016) Remux 1080p Ukr/Eng | Sub Eng

Відьма з Блер: Нова глава / Blair Witch (2016) Remux 1080p Ukr/Eng | Sub Eng

«Там у лісі ховаєтся зло»


Оригінальний постер

Відьма з Блер: Нова глава / Blair Witch (2016) Remux 1080p Ukr/Eng | Sub Eng
Жанр: трилер, жахи
Країна: США



Кінокомпанія: Lionsgate, Room 101, Snoot Entertainment, Vertigo Entertainment
Режисер: Адам Вінгард
Актори: Корбин Рейд, Уес Робінсон, Велорі Керрі, Джеймс Аллен МакКьюн, Каллі Ернандес, Брендон Скотт

Сюжет:
Після виявлення загадкового відеозапису у Джеймса з'являється надія знайти свою зниклу сестру. Разом з групою друзів він вирішується відправитися в ліс Блек Хіллз, відомий за легендою про відьму з Блер. Але ніяка найстрашніша легенда не зрівняється з тим жахом, який чекає на них в реальності.


Тривалість: 01:29:11
Якість: Remux 1080p

Відео:
кодек:
розмір кадру: 1920x1080
бітрейт: 33448 кб/с

Аудіо # 1:
мова: українська
переклад: багатоголосий закадровий
кодек: 2.0
бітрейт: 192 кб/с

Аудіо # 2:
мова: англійська
переклад: оригінал
кодек: Dolby Atmos TrueHD 7.1
бітрейт: 4507 кб/с

Аудіо # 3:
мова: англійська
переклад: оригінал
кодек: 5.1
бітрейт: 640 кб/с

Аудіо # 4:
мова: англійська
переклад: описова
кодек: 2.0
бітрейт: 224 кб/с

Аудіо # 5:
мова: англійська
переклад: │ Commentary with Director Adam Wingard and Writer Simon Barrett
кодек: 2.0
бітрейт: 224 кб/с

Аудіо # 6:
мова: англійська
переклад: │ Descriptive
кодек: 2.0
бітрейт: 224 кб/с

Субтитри(Full, SHD):
мова: англійська
тип: пререндерні
формат: PGS

Скріншоти




Info
Код:
General
Unique ID                      : 172389744982663727413566067295660416934 (0x81B10EA4720C02E2B1F09ABEF8821FA6)
Complete name                  : E:\HDCLUB\BLAIR_WITCH_REMUX_HDCLUB\BDMV\STREAM\Blair Witch (2016) [Ukr,Eng sub.Eng] Remux 1080p [Hurtom].
Format                         :
Format version                 : Version 4 / Version 2
File size                      : 24.6 GiB
Duration                       : 1h 29mn
Overall bit rate mode          : Variable
Overall bit rate               : 39.5 Mbps
Movie name                     : Blair Witch (2016) [Ukr,Eng sub.Eng] Remux 1080p [Hurtom]
Encoded date                   : UTC 2017-01-03 20:31:57
Writing application            : mkvmerge v9.5.0 ('Quiet Fire') 64bit
Writing library                : libebml v1.3.4 + libmatroska v1.4.5
Attachements                   : cover.jpg..jpg

Video
ID                             : 1
Format                         : AVC
Format/Info                    : Advanced Video Codec
Format profile                 : [email protected]
Format settings, CABAC         : Yes
Format settings, ReFrames      : 4 frames
Codec ID                       : V_MPEG4/ISO/AVC
Duration                       : 1h 29mn
Bit rate mode                  : Variable
Bit rate                       : 33.4 Mbps
Maximum bit rate               : 36.5 Mbps
Width                          : 1 920 pixels
Height                         : 1 080 pixels
Display aspect ratio           : 16:9
Frame rate mode                : Constant
Frame rate                     : 23.976 (24000/1001) fps
Color space                    : YUV
Chroma subsampling             : 4:2:0
Bit depth                      : 8 bits
Scan type                      : Progressive
Bits/(Pixel*Frame)             : 0.673
Stream size                    : 20.8 GiB (85%)
Title                          : Remux 1080p
Default                        : Yes
Forced                         : No

Audio #1
ID                             : 2
Format                         : AC-3
Format/Info                    : Audio Coding 3
Mode extension                 : CM (complete main)
Format settings, Endianness    : Big
Codec ID                       : A_AC3
Duration                       : 1h 29mn
Bit rate mode                  : Constant
Bit rate                       : 192 Kbps
Channel(s)                     : 2 channels
Channel positions              : Front: L R
Sampling rate                  : 48.0 KHz
Frame rate                     : 31.250 fps (1536 spf)
Compression mode               : Lossy
Stream size                    : 122 MiB (0%)
Title                          : UA-MVO-iTunes
Language                       : Ukrainian
Default                        : Yes
Forced                         : Yes

Audio #2
ID                             : 3
Format                         : Atmos / TrueHD
Codec ID                       : A_TRUEHD
Duration                       : 1h 29mn
Bit rate mode                  : Variable
Bit rate                       : 4 507 Kbps
Maximum bit rate               : 7 719 Kbps
Channel(s)                     : Object Based / 8 channels
Channel positions              : Object Based / Front: L C R, Side: L R, Back: L R, LFE
Sampling rate                  :  / 48.0 KHz
Frame rate                     : 1 200.000 fps (40 spf)
Compression mode               : Lossless
Stream size                    : 2.81 GiB (11%)
Title                          : ORIGINAL
Language                       : English
Default                        : No
Forced                         : No

Audio #3
ID                             : 4
Format                         : AC-3
Format/Info                    : Audio Coding 3
Mode extension                 : CM (complete main)
Format settings, Endianness    : Big
Codec ID                       : A_AC3
Duration                       : 1h 29mn
Bit rate mode                  : Constant
Bit rate                       : 640 Kbps
Channel(s)                     : 6 channels
Channel positions              : Front: L C R, Side: L R, LFE
Sampling rate                  : 48.0 KHz
Frame rate                     : 31.250 fps (1536 spf)
Compression mode               : Lossy
Stream size                    : 408 MiB (2%)
Language                       : English
Default                        : No
Forced                         : No

Audio #4
ID                             : 5
Format                         : AC-3
Format/Info                    : Audio Coding 3
Format profile                 : Dolby Digital
Mode extension                 : CM (complete main)
Format settings, Endianness    : Big
Codec ID                       : A_AC3
Duration                       : 1h 29mn
Bit rate mode                  : Constant
Bit rate                       : 224 Kbps
Channel(s)                     : 2 channels
Channel positions              : Front: L R
Sampling rate                  : 48.0 KHz
Frame rate                     : 31.250 fps (1536 spf)
Compression mode               : Lossy
Stream size                    : 143 MiB (1%)
Language                       : English
Default                        : No
Forced                         : No

Audio #5
ID                             : 6
Format                         : AC-3
Format/Info                    : Audio Coding 3
Format profile                 : Dolby Digital
Mode extension                 : CM (complete main)
Format settings, Endianness    : Big
Codec ID                       : A_AC3
Duration                       : 1h 29mn
Bit rate mode                  : Constant
Bit rate                       : 224 Kbps
Channel(s)                     : 2 channels
Channel positions              : Front: L R
Sampling rate                  : 48.0 KHz
Frame rate                     : 31.250 fps (1536 spf)
Compression mode               : Lossy
Stream size                    : 143 MiB (1%)
Language                       : English
Default                        : No
Forced                         : No

Audio #6
ID                             : 7
Format                         : AC-3
Format/Info                    : Audio Coding 3
Format profile                 : Dolby Digital
Mode extension                 : CM (complete main)
Format settings, Endianness    : Big
Codec ID                       : A_AC3
Duration                       : 1h 29mn
Bit rate mode                  : Constant
Bit rate                       : 224 Kbps
Channel(s)                     : 2 channels
Channel positions              : Front: L R
Sampling rate                  : 48.0 KHz
Frame rate                     : 31.250 fps (1536 spf)
Compression mode               : Lossy
Stream size                    : 143 MiB (1%)
Language                       : English
Default                        : No
Forced                         : No

Text
ID                             : 8
Format                         : PGS
Muxing mode                    : zlib
Codec ID                       : S_HDMV/PGS
Codec ID/Info                  : Picture based subtitle format used on BDs/HD-DVDs
Duration                       : 1h 21mn
Bit rate                       : 18.0 Kbps
Count of elements              : 2786
Stream size                    : 10.5 MiB (0%)
Language                       : English
Default                        : Yes
Forced                         : No
Джерело: &
Особиста оцінка: 0 - не дивився


Золотий реліз (завантажене не впливає на рейтинг)
 Трекер:    Зареєстрований   

Завантажити / скачати фільм українською



відео для новачків



 Зареєстрований:   2017-01-03 23:08
 Розмір:   24.64 GB 
 Оцінка фільму:   7.5/10 (Голосів: 8)
   
Uberwinder 
Поважний учасник


З нами з: 18.11.16
Востаннє: 17.12.17
Повідомлень: 166

2017-02-28 07:17  
За роздачу дякую, але сам фільм відверто не сподобався. Якось кострубато знятий, купа недолугих сцен, якось поспіхом зв'язаних у єдиний сюжет.
vitalikfv 
Новенький


З нами з: 29.12.13
Востаннє: 16.12.17
Повідомлень: 12

2017-09-24 04:36  
Ледве додивився. Гівно рідкісне. Але шанувальникам жанру мабуть супер! 0! Це нуль 0!
Ваш часовий пояс: GMT + 2 Години

Нова тема   Відповісти