Наскрізні поранення / Exit Wounds (2001) 1080p Ukr/Eng | Sub Eng

Нові коментарі

Нова тема   Відповісти
Останній раз роздавалося staf777 (2017-11-06)
Автор Повідомлення
staf777 
Відео Гуртом - підтримка та поширення
Відео Гуртом - підтримка та поширення


З нами з: 16.11.16
Востаннє: 06.11.17
Повідомлень: 522

2017-01-03 21:13  
Наскрізні поранення / Exit Wounds (2001) 1080p Ukr/Eng | Sub Eng

Наскрізні поранення / Exit Wounds (2001) 1080p Ukr/Eng | Sub Eng


Жанр: бойовик, комедія, кримінальний, трилер
Країна: США



Кінокомпанія: Warner Bros. Pictures
Режисер: Анджей Бартковяк
Актори: Стівен Сігал, DMX, Айзейя Вашінгтон, Ентоні Андерсон, Майкл Джей Вайт, Білл Дьюк, Джілл Хеннессі, Том Арнольд, Брюс МакГілл, Давід Вадім

Сюжет:
В честь імені детектива Оріна Бойда з Детройта слід було б назвати вулицю. Проте, післе того як він днями і ночами вистежував найманих політичних вбивць, його переводять в дорожну поліцію. Хтось дуже хоче прибрати Бойда з дороги, але йому стід прислухатися до поради: "викликай підмогу!"
Стівен Cігал та ДМІкс не на жарт розбушувалися в цьому запальному трилері Джоела Сілвера ("Матриця"). Ветеран боєвиків та майстер айкідо Сігал — в ролі Бойда, детектива зі стальною волею. ДМІкс, зірка репу, який підкорив серця кіноглядачів у фільмі «Ромео повинен померети», грає вуличного хлопця, який може стати союзником Бойда в його боротьбі з корупцією в поліції. А може і не стати… Режисер Анджей Бартковяк ("Ромео повинен померети") підключив до фільму потужну зоряну силу (включаючи Ісаю Вашінгтона, Джилл Хеннессі і Тома Арнольда). Перехресний вогонь і палаючі машини доводять адреналіновий показник до червоної мітки...


Тривалість: 01:41:21
Якість: 1080p
Відео:
кодек:
розмір кадру: 1920x800
бітрейт: 13711 кб/с

Аудіо # 1:
мова: українська
переклад: багатоголосий закадровий
кодек: 2.0
бітрейт: 192 кб/с

Аудіо # 2:
мова: англійська
переклад: оригінал
кодек: 5.1
бітрейт: 1510 кб/с

Субтитри:
мова: англійська
тип: програмні (м'які)
формат: *.srt
Info
General
Unique ID : 196709537891797817146616500518797492248 (0x93FCE10207E85397A98A5601836CC018)
Complete name : E:\HDCLUB\ Exit Wounds (2001) [Ukr,Eng sub.Eng] 1080p [Hurtom].
Format :
Format version : Version 4 / Version 2
File size : 10.9 GiB
Duration : 1h 41mn
Overall bit rate : 15.4 Mbps
Movie name : Exit Wounds (2001) [Ukr,Eng sub.Eng] 1080p [Hurtom]
Encoded date : UTC 2017-01-04 21:49:07
Writing application : mkvmerge v9.5.0 ('Quiet Fire') 64bit
Writing library : libebml v1.3.4 + libmatroska v1.4.5
Attachements : cover.jpg..jpg

Video
ID : 1
Format : AVC
Format/Info : Advanced Video Codec
Format profile : [email protected]
Format settings, CABAC : Yes
Format settings, ReFrames : 5 frames
Codec ID : V_MPEG4/ISO/AVC
Duration : 1h 41mn
Bit rate : 13.7 Mbps
Width : 1 920 pixels
Height : 800 pixels
Display aspect ratio : 2.40:1
Frame rate mode : Constant
Frame rate : 23.976 (24000/1001) fps
Color space : YUV
Chroma subsampling : 4:2:0
Bit depth : 8 bits
Scan type : Progressive
Bits/(Pixel*Frame) : 0.372
Stream size : 9.71 GiB (89%)
Title : Exit Wounds (2001) 1080p
Writing library : core 148 r2692kMod 64f4e24
Encoding settings : cabac=1 / ref=5 / deblock=1:-3:-3 / analyse=0x3:0x133 / me=umh / subme=10 / psy=1 / fade_compensate=0.00 / psy_rd=1.00:0.00 / mixed_ref=1 / me_range=32 / chroma_me=1 / trellis=2 / 8x8dct=1 / cqm=0 / deadzone=21,11 / fast_pskip=0 / chroma_qp_offset=-2 / threads=6 / lookahead_threads=1 / sliced_threads=0 / nr=0 / decimate=0 / interlaced=0 / bluray_compat=0 / constrained_intra=0 / fgo=0 / bframes=8 / b_pyramid=2 / b_adapt=2 / b_bias=0 / direct=3 / weightb=1 / open_gop=0 / weightp=2 / keyint=250 / keyint_min=23 / scenecut=40 / intra_refresh=0 / rc=crf / mbtree=0 / crf=18.0000 / qcomp=0.60 / qpmin=0 / qpmax=69 / qpstep=4 / ip_ratio=1.40 / pb_ratio=1.30 / aq=3:0.90
Language : English
Default : Yes
Forced : No

Audio #1
ID : 2
Format : AC-3
Format/Info : Audio Coding 3
Mode extension : CM (complete main)
Format settings, Endianness : Big
Codec ID : A_AC3
Duration : 1h 41mn
Bit rate mode : Constant
Bit rate : 192 Kbps
Channel(s) : 2 channels
Channel positions : Front: L R
Sampling rate : 48.0 KHz
Frame rate : 31.250 fps (1536 spf)
Compression mode : Lossy
Stream size : 139 MiB (1%)
Title : UA-MVO, ICTV|
Language : Ukrainian
Default : Yes
Forced : Yes

Audio #2
ID : 3
Format :
Format/Info : Digital Theater Systems
Mode : 16
Format settings, Endianness : Big
Codec ID : A_DTS
Duration : 1h 41mn
Bit rate mode : Constant
Bit rate : 1 509 Kbps
Channel(s) : 6 channels
Channel positions : Front: L C R, Side: L R, LFE
Sampling rate : 48.0 KHz
Frame rate : 93.750 fps (512 spf)
Bit depth : 24 bits
Compression mode : Lossy
Stream size : 1.07 GiB (10%)
Title : ORIGINAL
Language : English
Default : No
Forced : No

Text
ID : 4
Format : UTF-8
Codec ID : S_TEXT/UTF8
Codec ID/Info : UTF-8 Plain Text
Duration : 1h 38mn
Bit rate : 58 bps
Count of elements : 1235
Stream size : 42.4 KiB (0%)
Language : English
Default : No
Forced : No
Скріншоти




Джерело: &
Особиста оцінка: 0 - не дивився


Срібний реліз (на рейтинг впливає 50% завантаженого)
 Трекер:    Зареєстрований   

Завантажити / скачати фільм українською



відео для новачків



 Зареєстрований:   2017-01-05 00:24
 Розмір:   10.91 GB 
 Оцінка фільму:   4/10 (Голосів: 6)
   
Інші релізи
   Наскрізні поранення / Exit Wounds (2001) JACKUS  1 / 0   1.46 GB   2010-05-04 13:09 
Ваш часовий пояс: GMT + 2 Години

Нова тема   Відповісти