Вихор - Шлях крізь віки (2016) [APE] | Folk Metal / Pagan Metal

Нові коментарі

Нова тема   Відповісти
Автор Повідомлення
kolpavel 
VIP


З нами з: 04.05.14
Востаннє: 27.05.17
Повідомлень: 1132

2017-01-03 14:46  
Вихор - Шлях крізь віки (2016) [APE] | Folk Metal / Pagan Metal

Вихор - Шлях крізь віки (2016) [APE] | Folk Metal / Pagan Metal


Стиль: Folk Metal, Pagan Metal
Країна, місто: Україна, Біла Церква
Видавець: Soundage Productions (SAPCD 321)
Виконавці:
Ярослав Стерх - вокал, гітара
Євген Вихор - ударні
Любомир Косаковський - бас-гітара
Олена Кудрявцева - вокал
Олександр Шабельник - флейта
Пісні:
    1. Зачин - 00:35
    2. Мати - 03:32
    3. Розкажіть мені кургани - 07:10
    4. Йде весна - 04:17
    5. У вітру спитаєш дорогу пітьми - 06:54
    6. І небо спалахом засяє - 07:36
    7. Військо північних морів - 06:31
    8. Дума - 05:37

Тривалість: 00:42:12
Мова: українська
Аудіо-кодек: APE
Бітрейт: 995 кб/с
Джерело: трекер
Додаткова інформація:
EAC
Exact Audio Copy V1.0 beta 3 from 29. August 2011

EAC extraction logfile from 29. December 2016, 12:31

Вихор / Шлях крізь віки

Used drive : Optiarc DVD RW AD-7260S Adapter: 1 ID: 1

Read mode : Secure
Utilize accurate stream : Yes
Defeat audio cache : Yes
Make use of C2 pointers : No

Read offset correction : 48
Overread into Lead-In and Lead-Out : No
Fill up missing offset samples with silence : Yes
Delete leading and trailing silent blocks : No
Null samples used in CRC calculations : Yes
Used interface : Native Win32 interface for Win NT & 2000

Used output format : Internal WAV Routines
Sample format : 44.100 Hz; 16 Bit; Stereo

TOC of the extracted CD

Track | Start | Length | Start sector | End sector
---------------------------------------------------------
1 | 0:00.00 | 0:37.01 | 0 | 2775
2 | 0:37.01 | 3:34.01 | 2776 | 18826
3 | 4:11.02 | 7:12.18 | 18827 | 51244
4 | 11:23.20 | 4:19.14 | 51245 | 70683
5 | 15:42.34 | 6:56.11 | 70684 | 101894
6 | 22:38.45 | 7:38.73 | 101895 | 136317
7 | 30:17.43 | 6:33.25 | 136318 | 165817
8 | 36:50.68 | 5:37.39 | 165818 | 191131

Range status and errors

Selected range

Filename C:\Мои документы\Вихор - 2016 - Шлях крізь віки.wav

Peak level 97.5 %
Extraction speed 3.8 X
Range quality 99.9 %
Test CRC 98DD59C9
Copy CRC 98DD59C9
Copy OK

No errors occurred

AccurateRip summary

Track 1 accurately ripped (confidence 1) [E73B58E3] (AR v2)
Track 2 accurately ripped (confidence 1) [EFDFA701] (AR v2)
Track 3 accurately ripped (confidence 1) [02B6BA5E] (AR v2)
Track 4 accurately ripped (confidence 1) [2D8A3439] (AR v2)
Track 5 accurately ripped (confidence 1) [65DF0841] (AR v2)
Track 6 accurately ripped (confidence 1) [9882B0F3] (AR v2)
Track 7 accurately ripped (confidence 1) [DCE28688] (AR v2)
Track 8 accurately ripped (confidence 1) [C73B2252] (AR v2)

All tracks accurately ripped

End of status report

---- CUETools DB Plugin V2.1.4

[CTDB TOCID: zV_byQiSC8fE97PxQ4ta7mkZxOk-] found
Submit result: zV_byQiSC8fE97PxQ4ta7mkZxOk- has been confirmed
Track | CTDB Status
1 | (1/1) Accurately ripped
2 | (1/1) Accurately ripped
3 | (1/1) Accurately ripped
4 | (1/1) Accurately ripped
5 | (1/1) Accurately ripped
6 | (1/1) Accurately ripped
7 | (1/1) Accurately ripped
8 | (1/1) Accurately ripped
==== Log checksum 4B13FBB9CF08FB610D63308830F56557B836DE64A81628D3CC2149E2FCEEEA7C ====


Якщо Ви справді бажаєте підтримати українське - після прослуховування, якщо музика вам сподобалась, придбайте ліцензійний диск. Підтримаймо вітчизняних виконавців!


Срібний реліз (на рейтинг впливає 50% завантаженого)
 Трекер:    Зареєстрований   

Завантажити / скачати українську музику



відео для новачків



 Зареєстрований:   2017-01-03 14:46
 Розмір:   338 MB 
 Оцінка музики:   9.8/10 (Голосів: 4)
   
Ваш часовий пояс: GMT + 2 Години

Нова тема   Відповісти