Бетховен / Beethoven (1992) 720p 2xUkr/Eng | Sub Eng

Нові коментарі

Нова тема   Відповісти
Автор Повідомлення
staf777 
Відео Гуртом - підтримка та поширення
Відео Гуртом - підтримка та поширення


З нами з: 16.11.16
Востаннє: 16.08.17
Повідомлень: 522

2017-01-03 12:26  
Бетховен / Beethoven (1992) 720p 2xUkr/Eng | Sub Eng

Бетховен / Beethoven (1992) 720p 2xUkr/Eng | Sub Eng


Жанр: комедія, дитячий, сімейний, драма
Країна: США



Кінокомпанія: Universal Pictures
Режисер: Брайан Левант
Актори: Чарлз Гродін (Джордж Ньютон), Бонні Хант (Еліс Ньютон), Дін Джонс (Герман Варнік), Ніколь Том (Раіс Ньютон), Крістофер Кастіль (Тед Ньютон), Сара Роуз Карр (Емілі Ньютон), Олівер Платт (Харвей), Стенлі Туччі (Вернон), Девід Духовни (Бред), Патриція Хітон (Брі)

Сюжет:
Герой фільму — сенбернар Бетховен. Попавши ще цуциком в сім'ю Ньютонів, Бетховен швидко подружився з дітьми і їх мамою, тільки батько дивився на пса косо.
До одного ветеринара надійшло замовлення на випробування нових куль. Для проведення дослідів необхідна велика собака. В маленькому містечку знайти таку — досить важке завдання, але йому повезло — до нього на прийом прийшла сім'я Ньютонів зі своїм псом Бетховеном. Ветеринар вирішує будь якою ціною отримати собаку…


Тривалість: 01:27:01
Якість: 720p
Відео:
кодек:
розмір кадру: 1280x694
бітрейт: 8777 кб/с

Аудіо # 1:
мова: українська
переклад: багатоголосий закадровий
кодек: 2.0
бітрейт: 192 кб/с

Аудіо # 2:
мова: українська
переклад: багатоголосий закадровий
кодек: 2.0
бітрейт: 192 кб/с

Аудіо # 3:
мова: англійська
переклад: оригінал
кодек: FLAC 2.0
бітрейт: 569 кб/с

Субтитри:
мова: англійська
тип: програмні (м'які)
формат: *.srt
Info
General
Unique ID : 200798320634270857171896075917686722337 (0x9710598FB7F36C97902171A620EBCF21)
Complete name : E:\HDCLUB\Beethoven (1992) [2xUkr,Eng sub.Eng] 720p [Hurtom].
Format :
Format version : Version 4 / Version 2
File size : 5.92 GiB
Duration : 1h 27mn
Overall bit rate mode : Variable
Overall bit rate : 9 733 Kbps
Movie name : Beethoven (1992) [2xUkr,Eng sub.Eng] 720p [Hurtom]
Encoded date : UTC 2017-01-03 10:53:34
Writing application : mkvmerge v9.5.0 ('Quiet Fire') 64bit
Writing library : libebml v1.3.4 + libmatroska v1.4.5
Attachements : cover.jpg

Video
ID : 1
Format : AVC
Format/Info : Advanced Video Codec
Format profile : [email protected]
Format settings, CABAC : Yes
Format settings, ReFrames : 9 frames
Codec ID : V_MPEG4/ISO/AVC
Duration : 1h 27mn
Bit rate : 8 777 Kbps
Width : 1 280 pixels
Height : 694 pixels
Display aspect ratio : 1.85:1
Frame rate mode : Constant
Frame rate : 23.976 (24000/1001) fps
Color space : YUV
Chroma subsampling : 4:2:0
Bit depth : 8 bits
Scan type : Progressive
Bits/(Pixel*Frame) : 0.412
Stream size : 5.34 GiB (90%)
Title : Beethoven (1992) 720p
Writing library : core 148 r2705kMod 3f5ed56
Encoding settings : cabac=1 / ref=9 / deblock=1:-3:-3 / analyse=0x3:0x133 / me=umh / subme=10 / psy=1 / fade_compensate=0.00 / psy_rd=1.05:0.00 / mixed_ref=1 / me_range=32 / chroma_me=1 / trellis=2 / 8x8dct=1 / cqm=0 / deadzone=21,11 / fast_pskip=0 / chroma_qp_offset=-2 / threads=6 / lookahead_threads=1 / sliced_threads=0 / nr=0 / decimate=0 / interlaced=0 / bluray_compat=0 / constrained_intra=0 / fgo=0 / bframes=8 / b_pyramid=2 / b_adapt=2 / b_bias=0 / direct=3 / weightb=1 / open_gop=0 / weightp=2 / keyint=250 / keyint_min=23 / scenecut=40 / intra_refresh=0 / rc_lookahead=60 / rc=crf / mbtree=0 / crf=17.0000 / qcomp=0.60 / qpmin=0 / qpmax=69 / qpstep=4 / vbv_maxrate=62500 / vbv_bufsize=78125 / crf_max=0.0 / nal_hrd=none / filler=0 / ip_ratio=1.20 / pb_ratio=1.10 / aq=3:0.65
Default : Yes
Forced : No

Audio #1
ID : 2
Format : AC-3
Format/Info : Audio Coding 3
Mode extension : CM (complete main)
Format settings, Endianness : Big
Codec ID : A_AC3
Duration : 1h 27mn
Bit rate mode : Constant
Bit rate : 192 Kbps
Channel(s) : 2 channels
Channel positions : Front: L R
Sampling rate : 48.0 KHz
Frame rate : 31.250 fps (1536 spf)
Compression mode : Lossy
Stream size : 120 MiB (2%)
Title : UA-MVO- ICTV
Language : Ukrainian
Default : No
Forced : Yes

Audio #2
ID : 3
Format : AC-3
Format/Info : Audio Coding 3
Mode extension : CM (complete main)
Format settings, Endianness : Big
Codec ID : A_AC3
Duration : 1h 27mn
Bit rate mode : Constant
Bit rate : 192 Kbps
Channel(s) : 2 channels
Channel positions : Front: L R
Sampling rate : 48.0 KHz
Frame rate : 31.250 fps (1536 spf)
Compression mode : Lossy
Stream size : 120 MiB (2%)
Title : UA-MVO-[УКРАIНА]
Language : Ukrainian
Default : Yes
Forced : Yes

Audio #3
ID : 4
Format : FLAC
Format/Info : Free Lossless Audio Codec
Codec ID : A_FLAC
Duration : 1h 27mn
Bit rate mode : Variable
Bit rate : 569 Kbps
Channel(s) : 2 channels
Channel positions : Front: L R
Sampling rate : 48.0 KHz
Frame rate : 11.719 fps (4096 spf)
Bit depth : 16 bits
Stream size : 354 MiB (6%)
Title : Original
Writing library : libFLAC 1.2.1 (UTC 2007-09-17)
Language : English
Default : No
Forced : No

Text #1
ID : 5
Format : UTF-8
Codec ID : S_TEXT/UTF8
Codec ID/Info : UTF-8 Plain Text
Duration : 1h 22mn
Bit rate : 52 bps
Count of elements : 1040
Stream size : 31.4 KiB (0%)
Language : English
Default : No
Forced : No

Text #2
ID : 6
Format : UTF-8
Codec ID : S_TEXT/UTF8
Codec ID/Info : UTF-8 Plain Text
Duration : 1h 22mn
Bit rate : 58 bps
Count of elements : 1238
Stream size : 35.3 KiB (0%)
Title : SDH
Language : English
Default : No
Forced : No
Скріншоти





Джерело: &
Подяка Sando7 та Leggy за українські доріжки.


Срібний реліз (на рейтинг впливає 50% завантаженого)
 Трекер:    Зареєстрований   

Завантажити / скачати фільм українською



відео для новачків



 Зареєстрований:   2017-01-03 14:36
 Розмір:   5.92 GB 
 Оцінка фільму:   8.2/10 (Голосів: 5)
   
Інші релізи
   Бетховен / Beethoven (1992) 2xUkr/Eng | Sub Eng igor911  10 / 0   1.46 GB   2017-01-07 17:24 
boroznaya 
VIP


З нами з: 02.11.12
Востаннє: 19.08.17
Повідомлень: 2264

2017-03-21 19:25  
Піддайте жарку. Завтра з ранку понна би довантажити. Спасибі!
Ваш часовий пояс: GMT + 2 Години

Нова тема   Відповісти