Покемон (фільм): Джирачі - виконувач бажань / Pokemon (Movie): Jirachi Wish Maker (2004) 720p

Нові коментарі

Нова тема   Відповісти
Автор Повідомлення
leshaloh 
Свій


З нами з: 08.03.11
Востаннє: 18.08.17
Повідомлень: 57

2017-01-02 21:37  
Покемон (фільм): Джирачі - виконувач бажань / Pokemon (Movie): Jirachi Wish Maker (2004) 720p



Жанр: пригоди, комедія, фентезі
Країна: Японія/США

Кінокомпанія: OLM
Режисер: Куніхіко Юяма

Сюжет:
Комета Міленіуму от-от знову з'явиться у небі та допоможе здійснити бажання всіх, хто побачить її над головою. Звісно, Еш та його друзі не минуть нагоди потрапити на Фестиваль Міленіуму, а особливо їх цікавить магічне шоу Великого Батлера. Що ще більш цікаво - таємничий кокон у Батлерових руках, з якого Макс почує дивний голос! Коли Джирачі прокинеться після свого тисячолітнього сну, у Макса з'явиться новий друг; щоправда, лише на декілька днів, поки Комету Міленіуму можна буде спостерігати на небі.
Макс намагається провести якомога більше часу разом із новим другом, але Великий Батлер має власні плани на Джирачі, не такі вже й дружелюбні. Він хоче повернути до життя Легендарного Гроудона, і Джирачі повинно бути під силу виконати це бажання.
Чи зможуть Макс, Еш, Мей та Брок зупинити Батлера та врятувати Джирачі, поки Гроудон не відродився, почавши сіяти руйнування неосяжних масштабів?

Коментар:
Це шостий повнометражний фільм Покемонів, і перший фільм конкретно серіалу "Покемон: Нове покоління", тому така назва у файла.
В озвучці наявна розповсюджена помилка: голоси покемонів НЕ ПОВИННІ ОЗВУЧУВАТИСЯ. Мабуть, це зроблено тому, що їх голоси присутні у субтитрах, але їх додають для людей із вадами слуху, тож їх потрібно просто пропускати. У покемонському всесвіті покемони замість тварин, ніхто ж у фільмах з тваринами не дублює їх звуки, типу "гав-гав" чи "мууууууу". У даному релізі вся озвучка покемонів вирізана (крім Джірачі, звісно, бо він говорить людською мовою). Доріжку без корективів не додано, і додавати не збираюсь. Я НЕ ХОЧУ ЧУТИ СУПЕРЕЧОК З ЦЬОГО ПРИВОДУ.
Оскільки ТЕТ показали озвучку на американську версію (яку дублюють в усьому світі, окрім східноазіатських країн), відеоряд я, звісно, теж взяв від американки. Я не займаюсь сумішшю версій.

Тривалість: 78 хвилин

Якість: з логотипом каналу

Відео:
кодек: х.264
розмір кадру: 1280 х 720
бітрейт: ~2 500 кб/с

Аудіо:
мова: українська
переклад: двоголосий (?) закадровий
кодек: MP3
бітрейт: 128 кб/с
Info
General
Complete name : D:\Zuk\Video\!UA\Аніме\Покемон\Покемон - Нове покоління, фільм 1. Джирачі - виконувач бажань (HDTV 720p PAL).mp4
Format : MPEG-4
Format profile : Base Media
Codec ID : isom (isom)
File size : 1.43 GiB
Duration : 1 h 17 min
Overall bit rate : 2 630 kb/s
Encoded date : UTC 2016-12-04 12:55:12
Tagged date : UTC 2016-12-04 12:55:12
Writing application : Yamb 2.1.0.0 [http://yamb.unite-video.com]

Video
ID : 1
Format : AVC
Format/Info : Advanced Video Codec
Format profile : [email protected]
Format settings, CABAC : Yes
Format settings, ReFrames : 2 frames
Codec ID : avc1
Codec ID/Info : Advanced Video Coding
Duration : 1 h 17 min
Bit rate : 2 500 kb/s
Maximum bit rate : 14.2 Mb/s
Width : 1 280 pixels
Height : 720 pixels
Display aspect ratio : 16:9
Frame rate mode : Constant
Frame rate : 25.000 FPS
Standard : PAL
Color space : YUV
Chroma subsampling : 4:2:0
Bit depth : 8 bits
Scan type : Progressive
Bits/(Pixel*Frame) : 0.109
Stream size : 1.36 GiB (95%)
Encoded date : UTC 1970-01-01 00:00:00
Tagged date : UTC 2016-12-04 12:56:17
Color range : Limited

Audio
ID : 2
Format : MPEG Audio
Format version : Version 1
Format profile : Layer 3
Codec ID : 6B
Duration : 1 h 17 min
Bit rate mode : Constant
Bit rate : 128 kb/s
Maximum bit rate : 132 kb/s
Channel(s) : 2 channels
Sampling rate : 48.0 kHz
Compression mode : Lossy
Stream size : 71.4 MiB (5%)
Writing library : LAME3.82
Encoded date : UTC 2016-12-04 12:56:09
Tagged date : UTC 2016-12-04 12:56:17
Скріншоти


Зведення та корекція: я
Джерело озвучення:
Особиста оцінка: 8 - мені сподобалося


Срібний реліз (на рейтинг впливає 50% завантаженого)
 Трекер:    Зареєстрований   

Завантажити / скачати аніме українською



відео для новачків



 Зареєстрований:   2017-01-02 21:37
 Розмір:   1.43 GB 
 Оцінка аніме:   7.5/10 (Голосів: 4)
   
Ваш часовий пояс: GMT + 2 Години

Нова тема   Відповісти