Поза часом / Out of Time (2003) Remux 1080p Ukr/Eng | Sub Eng

Нові коментарі

Нова тема   Відповісти
Автор Повідомлення
staf777 
Відео Гуртом - підтримка та поширення
Відео Гуртом - підтримка та поширення


З нами з: 16.11.16
Востаннє: 11.09.17
Повідомлень: 522

2017-01-02 17:26  
Поза часом / Out of Time (2003) Remux 1080p Ukr/Eng | Sub Eng

Поза часом / Out of Time (2003) Remux 1080p Ukr/Eng | Sub Eng


Жанр: драма, трилер, кримінальний
Країна: США



Кінокомпанія: Metro-Goldwyn-Mayer (MGM), Monarch Pictures, Original Film
Режисер: Карл Франклін / Carl Franklin
Актори: Дензел Вашингтон, Єва Мендес, Сена Латан, Дін Кейн, Джон Біллінгслі, Роберт Бейкер, Алекс Картер, Ентоні Короун, Евелін Брукс

Сюжет:
Метт Лі Уїтлок (Дензел Вашингтон) — шанований в місті шериф. Але мало хто в місті знає які проблеми у нього в житті. Уїтлок довго і болісно розлучається з дружиною (вона ж слідчий з відділу вбивств), якій постійно зраджує з коханкою, яка до того ж, як з'ясовується, смертельно хвора, їй потрібно дороге лікування, а її чоловік знущається над нею. Метт і коханка наважуються на велику аферу з грошима. У ніч після афери з грошима загоряється будинок його коханки. На ранок з'ясується, що його коханка і її чоловік згоріли, а гроші пропали. Розслідування цієї справи доручено дружині Уітлок. І Уїтлок треба буде постаратися випередити час і своїх колег, щоб врятувати себе від звинувачення у вбивстві.


Тривалість: 01:45:25
Якість: Remux 1080p
Відео:
кодек:
розмір кадру: 1920x1080
бітрейт: 18.0 Mб/с

Аудіо # 1:
мова: українська
переклад: багатоголосий закадровий AMC
кодек: 2.0
бітрейт: 192 кб/с

Аудіо # 2:
мова: англійська
переклад: оригінал
кодек: -HD MA 5.1
бітрейт: 2048 кб/с

Субтитри:
мова: англійська
тип: пререндерні
формат: PGS
Info
General
Unique ID : 249422228561774319637061592473331349108 (0xBBA4F9501675C1B38DE7423950F4B674)
Complete name : E:\HDCLUB\OUT_OFF_TIME_HDCLUB\BDMV\STREAM\Out of Time (2003) [Ukr,Eng sub.Eng] Remux 1080p [Hurtom].
Format :
Format version : Version 4 / Version 2
File size : 14.9 GiB
Duration : 1h 45mn
Overall bit rate mode : Variable
Overall bit rate : 20.2 Mbps
Movie name : Out of Time (2003) [Ukr,Eng sub.Eng] Remux 1080p [Hurtom]
Encoded date : UTC 2017-01-03 10:08:25
Writing application : mkvmerge v9.5.0 ('Quiet Fire') 64bit
Writing library : libebml v1.3.4 + libmatroska v1.4.5
Attachements : cover.jpg..jpg

Video
ID : 1
Format : AVC
Format/Info : Advanced Video Codec
Format profile : [email protected]
Format settings, CABAC : Yes
Format settings, ReFrames : 4 frames
Codec ID : V_MPEG4/ISO/AVC
Duration : 1h 45mn
Bit rate mode : Variable
Bit rate : 18.0 Mbps
Maximum bit rate : 38.0 Mbps
Width : 1 920 pixels
Height : 1 080 pixels
Display aspect ratio : 16:9
Frame rate mode : Constant
Frame rate : 23.976 (24000/1001) fps
Color space : YUV
Chroma subsampling : 4:2:0
Bit depth : 8 bits
Scan type : Progressive
Bits/(Pixel*Frame) : 0.362
Stream size : 13.2 GiB (89%)
Title : Out of Time (2003) Remux 1080p
Default : Yes
Forced : No
Color range : Limited
Color primaries : BT.709
Transfer characteristics : BT.709
Matrix coefficients : BT.709

Audio #1
ID : 2
Format : AC-3
Format/Info : Audio Coding 3
Mode extension : CM (complete main)
Format settings, Endianness : Big
Codec ID : A_AC3
Duration : 1h 45mn
Bit rate mode : Constant
Bit rate : 192 Kbps
Channel(s) : 2 channels
Channel positions : Front: L R
Sampling rate : 48.0 KHz
Frame rate : 31.250 fps (1536 spf)
Compression mode : Lossy
Stream size : 145 MiB (1%)
Title : UA-MVO-AMC
Language : Ukrainian
Default : Yes
Forced : Yes

Audio #2
ID : 3
Format :
Format/Info : Digital Theater Systems
Format profile : MA / Core
Mode : 16
Format settings, Endianness : Big
Codec ID : A_DTS
Duration : 1h 45mn
Bit rate mode : Variable / Constant
Bit rate : 2 048 Kbps / 1 509 Kbps
Channel(s) : 6 channels
Channel positions : Front: L C R, Side: L R, LFE
Sampling rate : 48.0 KHz
Frame rate : 93.750 fps (512 spf)
Bit depth : 16 bits
Compression mode : Lossless / Lossy
Stream size : 1.49 GiB (10%)
Title : Original
Language : English
Default : No
Forced : No

Text
ID : 4
Format : PGS
Muxing mode : zlib
Codec ID : S_HDMV/PGS
Codec ID/Info : Picture based subtitle format used on BDs/HD-DVDs
Duration : 1h 40mn
Bit rate : 16.2 Kbps
Count of elements : 1879
Stream size : 11.7 MiB (0%)
Language : English
Default : Yes
Forced : No
Скріншоти



Джерело: &
За запис звуку з ТБ дякуємо пану Sando7, за синхронізацію - п.drop_plz
Особиста оцінка: 0 - не дивився


Золотий реліз (завантажене не впливає на рейтинг)
 Трекер:    Зареєстрований   

Завантажити / скачати фільм українською



відео для новачків



 Зареєстрований:   2017-01-03 14:55
 Розмір:   14.89 GB 
 Оцінка фільму:   8.5/10 (Голосів: 8)
   
Інші релізи
   Поза часом / Out of Time (2003) Ukr/Eng drop_plz  11 / 0   2 GB   2016-12-13 07:44 
Ваш часовий пояс: GMT + 2 Години

Нова тема   Відповісти