Глибоководний горизонт / Deepwater Horizon (2016) Remux 1080p Ukr/Eng | Sub Eng

Нові коментарі

Нова тема   Відповісти
Останній раз роздавалося romiv (2019-11-07)
Автор Повідомлення
Anonymous 







2017-01-01 22:16  
Глибоководний горизонт / Deepwater Horizon (2016) Remux 1080p Ukr/Eng | Sub Eng



Жанр: драма, трилер
Країна: США



Кінокомпанія: Lionsgate, Di Bonaventura Pictures
Режисер: Пітер Берг
Актори: Марк Уолберг, Кейт Хадсон, Курт Рассел, Джон Малковіч, Ділан О’Брайен, Ітан Саплі, Джина Родрігез, Дуглас М. Гріффін, Девід Мальдонадо, Бред Ліленд та інші

Сюжет:
Ця стрічка розповість про наслідки вибуху нафтової платформи Deepwater Horizon, що стався 20 квітня 2010 року в Мексиканській затоці в 80 кілометрах від узбережжя штату Луїзіана і став причиною другої за масштабами екологічної катастрофи в історії США.


Тривалість: 01:47:17
Якість: Remux
Відео:
кодек:
розмір кадру: 1920x1080
бітрейт: 24969 кб/с

Аудіо # 1:
мова: українська
переклад: професійний дубльований
кодек: 2.0
бітрейт: 192 кб/с

Аудіо # 2:
мова: англійська
переклад: оригінал
кодек: Dolby Atmos 7.1
бітрейт: 5035 кб/с

Аудіо # 3:
мова: англійська
переклад: оригінал
кодек: 5.1
бітрейт: 640 кб/с

Аудіо # 4:
мова: англійська
переклад: описова
кодек: 2.0
бітрейт: 224 кб/с

Аудіо # 5:
мова: англійська
переклад: оптимізована для нічного перегляду
кодек: 2.0
бітрейт: 224 кб/с

Субтитри:
мова: англійська
тип: програмні (м'які)
формат: *.srt
Info

General
Unique ID : 179785652164856577356045500487492647328 (0x874175050013A136BE56174F4FCB39A0)
Format :
Format version : Version 4 / Version 2
File size : 23.5 GiB
Duration : 1h 47mn
Overall bit rate mode : Variable
Overall bit rate : 31.4 Mbps
Encoded date : UTC 2017-01-01 18:48:25
Writing application : v7.3.0 ('Nouages') 64bit built on Oct 23 2014 13:14:01
Writing library : libebml v1.3.0 + v1.4.1
DURATION : 01:36:45.610000000
NUMBER_OF_FRAMES : 1488
NUMBER_OF_BYTES : 53159
_STATISTICS_WRITING_APP : v7.3.0 ('Nouages') 64bit built on Oct 23 2014 13:14:01
_STATISTICS_WRITING_DATE_UTC : 2017-01-01 18:48:25
_STATISTICS_TAGS : BPS DURATION NUMBER_OF_FRAMES NUMBER_OF_BYTES

Video
ID : 1
Format : AVC
Format/Info : Advanced Video Codec
Format profile : [email protected]
Format settings, CABAC : Yes
Format settings, ReFrames : 4 frames
Codec ID : V_MPEG4/ISO/AVC
Duration : 1h 47mn
Bit rate mode : Variable
Maximum bit rate : 36.4 Mbps
Width : 1 920 pixels
Height : 1 080 pixels
Display aspect ratio : 16:9
Frame rate mode : Constant
Frame rate : 23.976 fps
Color space : YUV
Chroma subsampling : 4:2:0
Bit depth : 8 bits
Scan type : Progressive
Default : Yes
Forced : No

Audio #1
ID : 2
Format : AC-3
Format/Info : Audio Coding 3
Mode extension : CM (complete main)
Format settings, Endianness : Big
Codec ID : A_AC3
Duration : 1h 47mn
Bit rate mode : Constant
Bit rate : 192 Kbps
Channel(s) : 2 channels
Channel positions : Front: L R
Sampling rate : 48.0 KHz
Bit depth : 16 bits
Compression mode : Lossy
Stream size : 147 MiB (1%)
Title : 2.0 @ 192 kbps
Language : Ukrainian
Default : Yes
Forced : Yes

Audio #2
ID : 3
Format : TrueHD
Codec ID : A_TRUEHD
Duration : 1h 47mn
Bit rate mode : Variable
Maximum bit rate : 6 759 Kbps
Channel(s) : 8 channels
Channel positions : Front: L C R, Side: L R, Back: L R, LFE
Sampling rate : 48.0 KHz
Compression mode : Lossless
Title : Dolby Atmos 7.1 @ 5035 kbps
Language : English
Default : No
Forced : No

Audio #3
ID : 4
Format : AC-3
Format/Info : Audio Coding 3
Mode extension : CM (complete main)
Format settings, Endianness : Big
Codec ID : A_AC3
Duration : 1h 47mn
Bit rate mode : Constant
Bit rate : 640 Kbps
Channel(s) : 6 channels
Channel positions : Front: L C R, Side: L R, LFE
Sampling rate : 48.0 KHz
Bit depth : 16 bits
Compression mode : Lossy
Stream size : 491 MiB (2%)
Title : 5.1 @ 640 kbps
Language : English
Default : No
Forced : No

Audio #4
ID : 5
Format : AC-3
Format/Info : Audio Coding 3
Format profile : Dolby Digital
Mode extension : CM (complete main)
Format settings, Endianness : Big
Codec ID : A_AC3
Duration : 1h 47mn
Bit rate mode : Constant
Bit rate : 224 Kbps
Channel(s) : 2 channels
Channel positions : Front: L R
Sampling rate : 48.0 KHz
Bit depth : 16 bits
Compression mode : Lossy
Stream size : 172 MiB (1%)
Title : 2.0 @ 224 kbps
Language : English
Default : No
Forced : No

Audio #5
ID : 6
Format : AC-3
Format/Info : Audio Coding 3
Format profile : Dolby Digital
Mode extension : CM (complete main)
Format settings, Endianness : Big
Codec ID : A_AC3
Duration : 1h 47mn
Bit rate mode : Constant
Bit rate : 224 Kbps
Channel(s) : 2 channels
Channel positions : Front: L R
Sampling rate : 48.0 KHz
Bit depth : 16 bits
Compression mode : Lossy
Stream size : 172 MiB (1%)
Title : 2.0 @ 224 kbps
Language : English
Default : No
Forced : No

Text
ID : 7
Format : UTF-8
Codec ID : S_TEXT/UTF8
Codec ID/Info : UTF-8 Plain Text
Language : English
Default : No
Forced : No
Скріншоти



Джерело: &


Золотий реліз (завантажене не впливає на рейтинг)
 Трекер:    Зареєстрований   

Завантажити / скачати фільм українською



відео для новачків



 Зареєстрований:   2017-01-02 15:04
 Розмір:   23.5 GB 
 Оцінка фільму:   6.8/10 (Голосів: 35)
   
DaemanUhr 
Новенький


З нами з: 17.11.09
Востаннє: 05.12.19
Повідомлень: 9

2017-01-07 04:27  
Дякую
Mongoose 
Свій


З нами з: 27.03.16
Востаннє: 03.12.19
Повідомлень: 142

2017-01-10 20:34  
Хто очікує складного чи непередбачуваного сюжету - можете сміло оминати стороною Happy
paokai 
Новенький


З нами з: 24.05.12
Востаннє: 12.08.19
Повідомлень: 7

2017-01-11 11:43  
Підскажіть якісніший переклад буде. Дякую
igor911 
Модератор відео


З нами з: 18.01.08
Востаннє: 06.12.19
Повідомлень: 13712

2017-01-11 11:51  
paokai, нового перекладу (озвучення) не буде, хіба за рік чи кілька якийсь з телеканалів зробить багатоголоску. А щодо якості звуку - задай питання у відповідній темі https://toloka.to/t78349
TPEM 
Відео Гуртом - фільмокрай
Відео Гуртом - фільмокрай


З нами з: 30.01.09
Востаннє: 06.12.19
Повідомлень: 410

2017-01-19 22:05  
Якісний фільм про реальні події, про справжніх людей, за яких переживаєш, навіть знаючи, чим закінчилась та історія.
.Rusnet8 
Свій


З нами з: 19.07.10
Востаннє: 21.11.19
Повідомлень: 88

2017-08-30 16:56  
Суперове кіно основане на реальних подіях, раджу до перегляду.
[email protected] 
VIP


З нами з: 24.03.17
Востаннє: 05.12.19
Повідомлень: 399

2019-02-04 00:45  
Якісний фільм вартий перегляду
Ваш часовий пояс: GMT + 2 Години

Нова тема   Відповісти