Небесне Воїнство (християнсько-молодіжна спільнота) - Да Воскреснет Бог (1998) [FLAC] | Chorus

Нові коментарі

Нова тема   Відповісти
Автор Повідомлення
StefFanKo 
Новенький


З нами з: 17.09.13
Востаннє: 14.08.17
Повідомлень: 23

2017-01-01 19:05  
Небесне Воїнство (християнсько-молодіжна спільнота) - Да Воскреснет Бог (1998) [FLAC] | Chorus

Небесне Воїнство (християнсько-молодіжна спільнота) - Да Воскреснет Бог (1998) [FLAC] | Chorus


Стиль: Christian Classic
Країна, місто: Україна, Львів
Видавець: Росток-Рекордс
Пісні:
    1. Да Воскреснет Бог
    2. Veni sancie spiritus
    3. Во всю землю (Причасний стих)
    4. Мати милосердя (Кант)
    5. Вечери Твоєя
    6 Totus tuus
    7. Іди, окаянна душе моя
    8. Херувимська
    9. Радуйтеся праведнії
    10. Сподоби Господи (з Вечірні)
    11. Мій Ісусе, моя любове
    12. Достойно
    13. Хагіос (Трисвяте, грецькою)
    14. Слава Марії
    15. Cristus (Мотет)
    16. Свят (з Літургії)
    17. Боже, великий, єдиний

Тривалість: 00:34:19
Мова: українська(4,7,11,12,14,16,17), церковно-слов'янська(1,3,5,8-10), грецька(13), латинь (2,6,15)
Аудіо-кодек: FLAC
Бітрейт: 662 кб/с
Джерело: власний ріп
Додаткова інформація:
У своїй фонотеці побачив цей альбом. Чудовий спів, гарний запис - раджу всім.
Звіт ЕАС про видобування:
Exact Audio Copy V1.0 beta 4 from 7. December 2014

Отчёт EAC об извлечении, выполненном 27. февраля 2015, 10:51

Християнсько-молодіжна спільнота. Львів / Да Воскреснет Бог

Дисковод: TEAC CD-W552G Adapter: 0 ID: 0

Режим чтения : Достоверность
Использование точного потока : Да
Отключение кэша аудио : Да
Использование указателей C2 : Нет

Коррекция смещения при чтении : 6
Способность читать области Lead-in и Lead-out : Нет
Заполнение пропущенных сэмплов тишиной : Да
Удаление блоков с тишиной в начале и конце : Нет
При вычислениях CRC использовались нулевые сэмплы : Да
Интерфейс : Установленный внешний ASPI-интерфейс

Выходной формат : Пользовательский кодировщик
Выбранный битрейт : 1024 kBit/s
Качество : Высокий
Добавление ID3-тега : Да
Утилита сжатия : C:\Program Files\Exact Audio Copy\Flac\flac.exe
Дополнительные параметры : -V -8 -T "Date=%year%" -T "Genre=%genre%" %source%

TOC извлечённого CD

Трек | Старт | Длительность | Начальный сектор | Конечный сектор
---------------------------------------------------------------------
1 | 0:00.00 | 2:29.17 | 0 | 11191
2 | 2:29.17 | 2:55.54 | 11192 | 24370
3 | 5:24.71 | 1:10.56 | 24371 | 29676
4 | 6:35.52 | 3:18.22 | 29677 | 44548
5 | 9:53.74 | 2:04.45 | 44549 | 53893
6 | 11:58.44 | 3:21.51 | 53894 | 69019
7 | 15:20.20 | 2:18.37 | 69020 | 79406
8 | 17:38.57 | 2:03.55 | 79407 | 88686
9 | 19:42.37 | 1:25.00 | 88687 | 95061
10 | 21:07.37 | 1:43.74 | 95062 | 102860
11 | 22:51.36 | 1:40.35 | 102861 | 110395
12 | 24:31.71 | 1:43.64 | 110396 | 118184
13 | 26:15.60 | 1:20.36 | 118185 | 124220
14 | 27:36.21 | 1:30.15 | 124221 | 130985
15 | 29:06.36 | 1:51.26 | 130986 | 139336
16 | 30:57.62 | 1:15.09 | 139337 | 144970
17 | 32:12.71 | 2:06.16 | 144971 | 154436

Характеристики диапазона извлечения и сообщения об ошибках

Выбранный диапазон

Имя файла D:\Небесне воїнство ДА ВОСКРЕСНЕТ БОГ\Християнсько-молодіжна спільнота. Львів - Да Воскреснет Бог.wav

Пиковый уровень 100.0 %
Скорость извлечения 8.4 X
Качество диапазона 100.0 %
CRC теста C045426A
CRC копии C045426A
Копирование... OK

Ошибок не произошло

Конец отчёта

==== Контрольная сумма отчёта 89BAA03BCD959E0F72ECBD52F9646B44C777C5B0DEED8CAC5A3512A1CEA4C990 ====
Якщо Ви справді бажаєте підтримати українське - після прослуховування, якщо музика вам сподобалась, придбайте ліцензійний диск. Підтримаймо вітчизняних виконавців!


Срібний реліз (на рейтинг впливає 50% завантаженого)
 Трекер:    Зареєстрований   

Завантажити / скачати українську музику



відео для новачків



 Зареєстрований:   2017-01-01 19:05
 Розмір:   175 MB 
 Оцінка музики:   4/10 (Голосів: 6)
   
jaral 
Відео Гуртом - підтримка та поширення
Відео Гуртом - підтримка та поширення


З нами з: 18.10.07
Востаннє: 19.08.17
Повідомлень: 410

2017-01-02 17:11  
StefFanKo написано:
Да воскреснет Бог
це насправді написано іноземною російською мовою!
StefFanKo 
Новенький


З нами з: 17.09.13
Востаннє: 14.08.17
Повідомлень: 23

2017-01-02 19:04  
jaral , з Вами абсолютно незгідний - при чому тут російська мова? Переклад на церковно-слов'янську відбувся ще набагато раніше, ніж постало князівство "московське", про щось "російське" взагалі мовчу... Бережімо і пишаймося своїм!
jaral 
Відео Гуртом - підтримка та поширення
Відео Гуртом - підтримка та поширення


З нами з: 18.10.07
Востаннє: 19.08.17
Повідомлень: 410

2017-01-06 03:07  
StefFanKo Чому не згідний? Старослов'янською трошки інакше пишемо на письмі, ніж тут у назві.
Ваш часовий пояс: GMT + 2 Години

Нова тема   Відповісти